<?xml version="1.0" standalone="no"?>
<!DOCTYPE svg PUBLIC "-//W3C//DTD SVG 1.1//EN" "http://www.w3.org/Graphics/SVG/1.1/DTD/svg11.dtd" >
<svg xmlns="http://www.w3.org/2000/svg">
<metadata></metadata>
<defs>
<font id="colaborate-regularregular" horiz-adv-x="1052" >
<font-face units-per-em="2048" ascent="1638" descent="-410" />
<missing-glyph horiz-adv-x="526" />
<glyph horiz-adv-x="0" />
<glyph horiz-adv-x="682" />
<glyph unicode=" "  horiz-adv-x="526" />
<glyph unicode="&#x09;" horiz-adv-x="526" />
<glyph unicode="&#xa0;" horiz-adv-x="526" />
<glyph unicode="!" horiz-adv-x="526" d="M162 0v199h205v-199h-205zM172 360v965h182v-965h-182z" />
<glyph unicode="&#x22;" horiz-adv-x="778" d="M158 1325h170l-17 -444h-137zM453 1325h170l-17 -444h-137z" />
<glyph unicode="#" d="M29 371v135h207l53 297h-180v135h204l68 387h160l-68 -387h195l67 387h160l-68 -387h195v-135h-219l-53 -297h192v-135h-215l-65 -371h-160l65 371h-196l-64 -371h-160l66 371h-184zM395 506h197l51 297h-197z" />
<glyph unicode="$" d="M84 993q0 80 28 144t77.5 105t113 66t139.5 35v185h150v-180q171 -11 295 -54l-66 -174q-130 60 -229 68v-432q43 -17 74 -30.5t70.5 -34.5t67 -43t56 -53.5t45.5 -67t28 -82.5t11 -101q0 -325 -352 -373v-172h-150v164q-126 2 -352 62l66 174q9 -4 45.5 -18t49 -18.5 t43.5 -15t49.5 -14.5t45.5 -8t53 -4v485q-47 18 -74.5 29.5t-70.5 33t-69 40.5t-56.5 49t-47.5 62.5t-28.5 77t-11.5 95.5zM287 993q0 -64 40.5 -104t116.5 -74v367q-157 -36 -157 -189zM590 141q151 46 151 199q0 71 -39.5 117.5t-111.5 83.5v-400z" />
<glyph unicode="%" horiz-adv-x="1605" d="M100 997q0 351 277 351q82 0 137.5 -25.5t85 -75.5t41.5 -109.5t12 -140.5q0 -82 -12 -143.5t-41.5 -114t-86 -80.5t-138.5 -28q-81 0 -137 28t-85 81t-41 114t-12 143zM233 997q0 -52 2.5 -88t11 -73t23.5 -58.5t41.5 -35t63.5 -13.5q38 0 65 14t42.5 36t24.5 58.5 t12 73t3 86.5q0 51 -2.5 86t-11.5 69.5t-24.5 54.5t-42 32t-64.5 12q-45 0 -75 -20.5t-44 -59t-19.5 -79t-5.5 -95.5zM346 0l741 1288h166l-743 -1288h-164zM952 340q0 352 277 352q82 0 138 -26t86 -75.5t42 -109.5t12 -141t-12.5 -142.5t-42 -114t-86.5 -80.5t-139 -28 q-81 0 -137 27.5t-85 80.5t-41 114t-12 143zM1087 340q0 -53 2.5 -88.5t10.5 -72.5t23 -58.5t41 -35t63 -13.5q38 0 65 14t42.5 36t24.5 58.5t12 73t3 86.5q0 51 -2.5 86t-11.5 70t-24.5 55t-42 32.5t-64.5 12.5q-45 0 -74.5 -20.5t-43.5 -60t-19 -80t-5 -95.5z" />
<glyph unicode="&#x26;" d="M94 362q0 265 232 381q-5 4 -35 26t-44 33.5t-39.5 37.5t-38 48.5t-23.5 56t-11 69.5q0 72 19 132t59.5 108t109.5 75t162 27q168 0 259.5 -82t91.5 -246q0 -59 -27 -110.5t-76.5 -92.5t-103.5 -72t-125 -61q-113 -48 -167 -122.5t-54 -202.5q0 -47 12.5 -90t39.5 -81.5 t76 -61.5t115 -23q64 0 122.5 41t101.5 106v207h-197v131h377v-309q0 -61 14 -172t14 -115h-167l-29 100q-37 -55 -109 -93t-143 -38q-67 0 -126 13t-113 43t-92.5 74.5t-61.5 111.5t-23 151zM322 1016q0 -28 9 -54t27.5 -48.5t32 -36.5t38 -34.5t30.5 -25.5q40 17 69.5 34 t60 42.5t46.5 60t16 76.5q0 87 -38 135.5t-132 48.5q-159 0 -159 -198z" />
<glyph unicode="'" horiz-adv-x="526" d="M178 1325h170l-16 -444h-137z" />
<glyph unicode="(" horiz-adv-x="604" d="M115 520q0 184 23.5 321.5t64.5 240t119 243.5h165q-108 -199 -147 -371t-39 -434q0 -229 39.5 -397.5t157.5 -384.5h-166q-128 222 -172.5 385t-44.5 397z" />
<glyph unicode=")" horiz-adv-x="604" d="M109 -262q118 215 157 383.5t39 398.5q0 262 -39 434t-147 371h168q78 -141 119 -243.5t64.5 -240t23.5 -321.5q0 -234 -44.5 -396.5t-173.5 -385.5h-167z" />
<glyph unicode="*" horiz-adv-x="839" d="M25 993l41 129l292 -110l17 12l-15 305h129l-16 -311l14 -8l293 108l37 -127l-301 -73l-2 -15l197 -254l-107 -76l-170 263h-16l-174 -263l-107 78l197 252l-4 15z" />
<glyph unicode="+" d="M90 373v145h354v359h164v-359h355v-145h-355v-373h-164v373h-354z" />
<glyph unicode="," horiz-adv-x="526" d="M57 -211l105 365h203l-166 -365h-142z" />
<glyph unicode="-" horiz-adv-x="692" d="M57 401v156h578v-156h-578z" />
<glyph unicode="." horiz-adv-x="526" d="M162 0v197h203v-197h-203z" />
<glyph unicode="/" horiz-adv-x="567" d="M-14 -23l436 1369h160l-435 -1369h-161z" />
<glyph unicode="0" d="M78 631q0 112 12.5 203.5t44.5 174.5t81.5 139t127.5 89t180 33q110 0 191 -32.5t130 -86.5t79 -138t40.5 -174t10.5 -208q0 -119 -10.5 -211t-40 -180.5t-79 -145.5t-131 -92t-192.5 -35q-92 0 -163 23t-119 68t-80.5 102.5t-50 136t-24.5 157t-7 177.5zM283 631 q0 -71 1.5 -120t7 -106.5t15.5 -96t27.5 -77t42.5 -60.5t61.5 -36t83.5 -14q48 0 86 14.5t63.5 38t44 62.5t29 78.5t16.5 96t7.5 105t1.5 115.5q0 69 -1.5 117.5t-7.5 103t-16.5 91t-28.5 72t-44 56t-63 33t-85 12.5q-53 0 -93.5 -18.5t-66.5 -54.5t-42.5 -78t-24.5 -101.5 t-11 -111.5t-3 -121z" />
<glyph unicode="1" d="M231 997l308 246h196v-1245h-205v1040l-235 -194z" />
<glyph unicode="2" d="M88 168q22 18 111.5 90t141.5 115.5t134 120.5t129 134t83 125.5t36 123.5q0 130 -58.5 185.5t-168.5 55.5q-70 0 -139.5 -23t-170.5 -75l-63 170q130 50 206 66t171 16q89 0 163 -20t135.5 -63t96.5 -120.5t35 -183.5q0 -57 -23 -120t-55 -116.5t-87.5 -118t-98 -108 t-112 -103t-103.5 -87t-95 -76.5h598v-156h-807z" />
<glyph unicode="3" d="M78 18l61 170q158 -67 305 -67q112 0 183 57.5t71 159.5q0 61 -19.5 105t-51.5 70.5t-84 41.5t-106.5 20t-129.5 5v147q73 0 123 4t98.5 16.5t77 35t45.5 60t17 91.5q0 100 -54.5 142t-152.5 42q-111 0 -299 -92l-62 170q65 32 174.5 54t190.5 22q197 0 302 -83.5 t105 -250.5q0 -127 -78.5 -197.5t-197.5 -85.5q59 -9 109.5 -30t97 -57t73.5 -95.5t27 -136.5q0 -83 -27.5 -148t-72 -106t-106 -67.5t-125 -37t-134.5 -10.5q-212 0 -360 51z" />
<glyph unicode="4" d="M47 496l553 747h211v-751h197v-156h-197v-336h-201v336h-495zM211 492h399v542z" />
<glyph unicode="5" d="M102 14l64 170q157 -63 311 -63q271 0 271 278q0 125 -57.5 185.5t-155.5 60.5q-54 0 -107.5 -15.5t-73.5 -26t-73 -40.5l-140 55v625h756v-153h-555v-326q3 1 21 6.5t23 7t21.5 6.5t24.5 6.5l24 4.5t28.5 4.5t29 2.5t33.5 1q188 0 294.5 -105.5t106.5 -302.5 q0 -201 -132 -314.5t-341 -113.5q-229 0 -373 47z" />
<glyph unicode="6" d="M92 580q0 102 18 198.5t58.5 186.5t99.5 158t148 108.5t196 40.5q144 0 279 -37l-64 -170q-113 53 -204 53q-86 0 -152.5 -38t-106.5 -104t-60.5 -149.5t-20.5 -181.5q40 83 119.5 130.5t154.5 47.5q199 0 300 -115t101 -323q0 -179 -119.5 -298.5t-297.5 -119.5 q-108 0 -189.5 35.5t-130 92t-78.5 139.5t-40.5 165t-10.5 181zM301 489q0 -108 16 -181.5t49 -113.5t75 -56.5t102 -16.5q93 0 152 69t59 195q0 44 -3.5 79.5t-16.5 76t-35 67t-61 44.5t-93 18q-173 0 -244 -181z" />
<glyph unicode="7" d="M98 1087v154h756l66 -137l-453 -1104h-221l493 1087h-641z" />
<glyph unicode="8" d="M76 311q0 133 79 219.5t222 124.5q-3 1 -21.5 8.5t-28.5 12t-31.5 15t-35 19.5t-34 23.5t-34 29t-28.5 34.5t-24 41t-15 47.5t-6 54.5q0 160 106 246t305 86q211 0 312.5 -79t101.5 -251q0 -54 -21 -101.5t-52 -78.5t-69.5 -55.5t-70 -36.5t-57.5 -17 q150 -42 225.5 -124.5t75.5 -217.5q0 -344 -455 -344q-72 0 -133.5 9.5t-120.5 33.5t-99.5 62t-65.5 99t-25 140zM276 315q0 -92 62.5 -144t181.5 -52q122 0 189 50.5t67 145.5q0 57 -21 103t-59.5 77t-78.5 50.5t-91 36.5q-54 -17 -92.5 -35.5t-77.5 -49t-59.5 -76.5 t-20.5 -106zM317 936q0 -43 19.5 -80t52 -62.5t65 -42.5t68.5 -28q39 11 75.5 28.5t72 43t57 62.5t21.5 79q0 93 -51 138.5t-167 45.5q-113 0 -163 -44.5t-50 -139.5z" />
<glyph unicode="9" d="M92 852q0 178 122.5 299t295.5 121q110 0 192 -35.5t130.5 -92t78.5 -139.5t40 -165t10 -181q0 -101 -18.5 -198t-59.5 -187t-100.5 -158t-148 -108.5t-196.5 -40.5q-141 0 -276 37l63 170q113 -53 203 -53q86 0 152.5 38t107.5 104t61.5 150t20.5 181 q-40 -83 -119.5 -130.5t-154.5 -47.5q-199 0 -301.5 114t-102.5 322zM299 852q0 -45 3.5 -79.5t16 -75t34 -67t60.5 -44t93 -17.5q175 0 246 181q0 108 -16.5 181.5t-50 113.5t-75.5 56.5t-102 16.5q-93 0 -151 -69.5t-58 -196.5z" />
<glyph unicode=":" horiz-adv-x="526" d="M162 0v197h203v-197h-203zM162 729v197h203v-197h-203z" />
<glyph unicode=";" horiz-adv-x="526" d="M57 -211l103 365h205l-166 -365h-142zM160 729v197h202v-197h-202z" />
<glyph unicode="&#x3c;" d="M82 381v205l889 325v-182l-705 -246l705 -241v-183z" />
<glyph unicode="=" d="M82 170v147h889v-147h-889zM82 524v148h889v-148h-889z" />
<glyph unicode="&#x3e;" d="M82 59v183l704 245l-704 242v182l889 -323v-203z" />
<glyph unicode="?" horiz-adv-x="890" d="M104 1284q70 25 167 43.5t167 18.5q61 0 110.5 -6.5t103.5 -27.5t90.5 -55.5t60.5 -95.5t24 -143q0 -57 -24.5 -107t-61.5 -84.5t-80.5 -71t-80.5 -67.5t-61.5 -74t-24.5 -90v-176h-185v187q0 57 18 105t46 81.5t62.5 63t69 55t62.5 51.5t46 58t18 69q0 91 -44 130.5 t-149 39.5q-57 0 -149.5 -22t-147.5 -50zM299 0v199h205v-199h-205z" />
<glyph unicode="@" horiz-adv-x="1781" d="M166 655q0 171 61 305.5t169 218.5t249.5 127.5t308.5 43.5q91 0 181 -19t177.5 -63t154.5 -108t108 -162.5t41 -217.5q0 -114 -34.5 -204t-92.5 -149t-140.5 -97.5t-173 -55t-194.5 -16.5q-215 0 -336 103t-121 296q0 81 25.5 151t75.5 124.5t130.5 85.5t182.5 31 q105 0 201 -29v-354l55 4l53 -138l-274 -28v393q-17 10 -47 10q-43 0 -79.5 -12t-69 -38.5t-51.5 -77t-19 -120.5q0 -64 18.5 -113t46.5 -77.5t66.5 -46t73.5 -23.5t73 -6q82 0 145.5 9.5t122 35.5t96.5 68.5t60.5 111t22.5 160.5q0 96 -28 171.5t-73.5 123t-108.5 79 t-129 44t-139 12.5q-81 0 -158.5 -14.5t-160.5 -53.5t-144.5 -99t-101 -159.5t-39.5 -226.5q0 -129 40.5 -229.5t102 -159.5t145.5 -97t161.5 -51.5t158.5 -13.5q110 0 208 16t227 54l63 -151q-225 -60 -504 -60q-175 0 -318.5 44t-248 129t-162 217.5t-57.5 301.5z" />
<glyph unicode="A" horiz-adv-x="1345" d="M63 0l539 1325h180l500 -1325h-225l-131 375h-508l-139 -375h-216zM475 528h399l-192 559z" />
<glyph unicode="B" horiz-adv-x="1234" d="M197 0v1325h415q80 0 144 -9.5t122.5 -34t97 -64t61 -102.5t22.5 -146q0 -101 -58 -172.5t-153 -102.5q128 -23 200 -101t72 -212q0 -88 -23.5 -155.5t-62.5 -109.5t-96.5 -68.5t-119.5 -37t-138 -10.5h-483zM401 158h267q115 0 178 48t63 175q0 52 -14 91.5t-37 64 t-57.5 40t-72 21.5t-83.5 6h-244v-446zM401 760h240q93 0 151 52t58 155t-55.5 151.5t-182.5 48.5h-211v-407z" />
<glyph unicode="C" horiz-adv-x="1144" d="M125 662q0 115 18 213.5t61 187.5t109.5 151.5t169 99t234.5 36.5q178 0 336 -52l-66 -174q-158 68 -270 68q-106 0 -181.5 -38.5t-118.5 -111.5t-62 -165.5t-19 -212.5q0 -101 11.5 -182t38 -149.5t68.5 -114.5t105.5 -71.5t145.5 -25.5q50 0 104 12.5t88 24.5t104 41 l66 -174q-177 -62 -360 -62q-156 0 -270 51t-181.5 146t-99 219t-31.5 283z" />
<glyph unicode="D" horiz-adv-x="1333" d="M197 0v1325h378q225 0 362 -64t204 -208t67 -385q0 -359 -149 -513.5t-484 -154.5h-378zM401 158h193q100 0 172.5 25.5t125.5 83.5t79 157.5t26 241.5q0 153 -26.5 253t-83.5 154t-130 74t-182 20h-174v-1009z" />
<glyph unicode="E" horiz-adv-x="1144" d="M197 0v1325h759v-158h-555v-403h512v-158h-512v-448h574v-158h-778z" />
<glyph unicode="F" horiz-adv-x="1067" d="M197 0v1325h759v-160h-555v-409h531v-156h-531v-600h-204z" />
<glyph unicode="G" horiz-adv-x="1259" d="M125 664q0 125 21 228.5t67 189t116 144.5t170.5 91.5t227.5 32.5q124 0 320 -52l-66 -174q-155 68 -252 68q-195 0 -294 -124t-99 -404q0 -101 10.5 -179.5t36.5 -148.5t68.5 -116t109 -72.5t154.5 -26.5q120 0 237 65v338h-293v158h476v-602q-112 -62 -204.5 -89.5 t-221.5 -27.5q-135 0 -239 39t-168 104t-105 157.5t-56.5 189.5t-15.5 211z" />
<glyph unicode="H" horiz-adv-x="1372" d="M197 0v1325h204v-561h570v561h205v-1325h-205v604h-570v-604h-204z" />
<glyph unicode="I" horiz-adv-x="548" d="M172 0v1325h205v-1325h-205z" />
<glyph unicode="J" horiz-adv-x="862" d="M33 0q16 3 49 9q143 27 207 58q153 76 170 275q2 27 2 55v928h205v-907q0 -71 -12 -133t-31 -109.5t-50.5 -89.5t-62.5 -71.5t-75.5 -56t-80.5 -43.5t-87.5 -34.5t-86.5 -27t-86 -23.5q-5 -1 -8 -2z" />
<glyph unicode="K" horiz-adv-x="1277" d="M197 0v1325h204v-582l537 582h229l-577 -625l657 -700h-266l-580 623v-623h-204z" />
<glyph unicode="L" horiz-adv-x="993" d="M197 0v1325h204v-1161h578v-164h-782z" />
<glyph unicode="M" horiz-adv-x="1804" d="M197 0v1325h325l385 -1046l391 1046h310v-1325h-199v1108l-412 -1108h-194l-414 1108v-1108h-192z" />
<glyph unicode="N" horiz-adv-x="1435" d="M197 0v1325h299l542 -1083v1083h201v-1325h-303l-547 1083v-1083h-192z" />
<glyph unicode="O" horiz-adv-x="1439" d="M125 657q0 121 19.5 222.5t64.5 190t113.5 149.5t170.5 96t232 35q590 0 590 -693q0 -122 -19 -223.5t-63 -190t-111.5 -149.5t-168.5 -96t-230 -35q-135 0 -238.5 35t-170.5 95.5t-110 149.5t-61 190t-18 224zM336 657q0 -275 90 -405.5t297 -130.5q206 0 293.5 136 t87.5 400q0 271 -89.5 403t-291.5 132q-204 0 -295.5 -133t-91.5 -402z" />
<glyph unicode="P" horiz-adv-x="1183" d="M197 0v1325h424q105 0 185.5 -20t143 -64t95 -120t32.5 -183q0 -399 -434 -399h-242v-539h-204zM401 696h226q117 0 179 54.5t62 187.5q0 57 -13 99t-34.5 67t-55.5 39t-68.5 19t-80.5 5h-215v-471z" />
<glyph unicode="Q" horiz-adv-x="1439" d="M125 657q0 121 19.5 222.5t64 190t112.5 149.5t170.5 96t233.5 35q590 0 590 -693q0 -122 -19 -223.5t-63 -190t-111.5 -149.5t-168.5 -96t-230 -35q-135 0 -238.5 35t-170.5 95.5t-110 149.5t-61 190t-18 224zM336 657q0 -275 90 -405.5t297 -130.5q206 0 293.5 136 t87.5 400q0 271 -89.5 403t-291.5 132q-204 0 -295.5 -133t-91.5 -402zM655 -201l72 117l449 -41l-72 -143z" />
<glyph unicode="R" horiz-adv-x="1257" d="M197 0v1325h454q68 0 127 -9.5t117 -35.5t99.5 -66.5t67 -106.5t25.5 -151q0 -73 -18 -134.5t-57.5 -113.5t-110 -86t-166.5 -44l432 -578h-247l-422 571h-97v-571h-204zM401 729h263q111 0 163 61.5t52 165.5q0 101 -55.5 156t-161.5 55h-261v-438z" />
<glyph unicode="S" horiz-adv-x="1171" d="M135 25l66 174q69 -26 104.5 -38.5t96.5 -26t112 -13.5q313 0 313 219q0 43 -18.5 78.5t-38 57.5t-71 48.5t-76 36t-93.5 35.5q-7 3 -10 4q-51 19 -80 30.5t-75.5 33.5t-74 41.5t-61 50t-51.5 63.5t-30.5 77.5t-12.5 96.5q0 75 26.5 135.5t71 101t106 68t130 40 t143.5 12.5q73 0 168.5 -15t173.5 -41l-65 -174q-3 1 -28 12t-30.5 13.5t-28.5 11.5t-34 11.5t-33.5 9t-39 8.5t-39.5 4t-46 2q-137 0 -201.5 -53t-64.5 -146q0 -28 8.5 -52t28 -44t39 -34.5t54 -30.5t59 -25.5t67.5 -24.5q160 -57 223 -91q171 -93 204 -255q9 -43 9 -92 q0 -89 -29 -157t-76 -110t-116.5 -68t-142 -36t-160.5 -10q-151 0 -377 62z" />
<glyph unicode="T" horiz-adv-x="1058" d="M49 1165v160h961v-160h-379v-1165h-203v1165h-379z" />
<glyph unicode="U" horiz-adv-x="1435" d="M197 489v836h204v-815q0 -116 22 -194t67 -120t102 -58.5t139 -16.5q152 0 227.5 89.5t75.5 299.5v815h205v-840q0 -522 -508 -522q-276 0 -405 129t-129 397z" />
<glyph unicode="V" horiz-adv-x="1286" d="M59 1325h226l372 -1065l355 1065h215l-482 -1325h-186z" />
<glyph unicode="W" horiz-adv-x="1890" d="M72 1325h215l252 -1069l301 1014h245l269 -1016l268 1071h197l-346 -1325h-248l-277 989l-311 -989h-248z" />
<glyph unicode="X" horiz-adv-x="1239" d="M63 0l443 684l-389 641h235l275 -463l291 463h219l-408 -629l434 -696h-243l-306 524l-331 -524h-220z" />
<glyph unicode="Y" horiz-adv-x="1208" d="M31 1325h231l354 -553l345 553h217l-467 -729v-596h-205v588z" />
<glyph unicode="Z" horiz-adv-x="1126" d="M90 168l725 997h-649v160h813l57 -168l-725 -997h709v-160h-873z" />
<glyph unicode="[" horiz-adv-x="591" d="M170 -260v1644h326v-133h-162v-1372h162v-139h-326z" />
<glyph unicode="\" horiz-adv-x="567" d="M-14 1346h159l437 -1369h-162z" />
<glyph unicode="]" horiz-adv-x="591" d="M109 -121h161v1374h-161v133h325v-1644h-325v137z" />
<glyph unicode="^" d="M70 551l370 774h166l379 -774h-178l-283 604l-282 -604h-172z" />
<glyph unicode="_" horiz-adv-x="1024" d="M-2 -84h1028v-139h-1028v139z" />
<glyph unicode="`" horiz-adv-x="466" d="M39 1325h192l197 -240h-135z" />
<glyph unicode="a" horiz-adv-x="1026" d="M92 246q0 75 24 132.5t79.5 104t157.5 71t247 24.5h84v59q0 84 -34.5 133t-125.5 49q-157 0 -329 -82l-64 152q196 72 399 72q155 0 246.5 -75t91.5 -224v-375q0 -33 5.5 -78.5t14.5 -107.5t13 -101h-170q0 4 -16 51t-17 51q-44 -51 -111 -89t-143 -38q-164 0 -258 69 t-94 202zM285 254q0 -67 51 -102t137 -35q70 0 126.5 30.5t86.5 79.5v224h-57q-189 0 -266.5 -47t-77.5 -150z" />
<glyph unicode="b" horiz-adv-x="1046" d="M117 0q22 178 22 287v1059h183v-541q106 156 251 156q101 0 176.5 -39t119 -108t64.5 -154.5t21 -186.5q0 -103 -25 -191.5t-73.5 -157.5t-128 -109t-180.5 -40q-78 0 -138 38.5t-94 88.5l-32 -102h-166zM317 254q29 -64 84 -100.5t121 -36.5q244 0 244 352 q0 350 -217 350q-45 0 -83 -17.5t-67 -51t-46 -59t-36 -62.5v-375z" />
<glyph unicode="c" horiz-adv-x="923" d="M92 461q0 235 110.5 367.5t334.5 132.5q59 0 155.5 -21t151.5 -43l-64 -152q-148 74 -245 74q-134 0 -194 -87.5t-60 -270.5q0 -344 251 -344q47 0 120.5 21t133.5 52l64 -151q-51 -25 -156 -44.5t-164 -19.5q-216 0 -327 131.5t-111 354.5z" />
<glyph unicode="d" horiz-adv-x="1046" d="M92 473q0 100 24 187t70.5 155t121 107t169.5 39q142 0 248 -156v541h182v-1059q0 -25 0.5 -46.5t2 -44t2 -36t3.5 -38.5t4 -35.5t5 -42.5t6 -44h-166l-33 102q-35 -54 -96.5 -90.5t-134.5 -36.5q-108 0 -188.5 39.5t-127.5 109.5t-69.5 157.5t-22.5 191.5zM281 469 q0 -185 58.5 -268.5t184.5 -83.5q120 0 205 137v375q-18 37 -35.5 64t-45.5 59t-66 49.5t-82 17.5q-100 0 -159.5 -82t-59.5 -268z" />
<glyph unicode="e" horiz-adv-x="1026" d="M92 459q0 70 11.5 136t41 134t75 118t120 82t168.5 32q98 0 171 -25t121 -71t77 -117t41 -155.5t12 -195.5h-643q20 -284 248 -284q124 0 284 80l60 -144q-161 -74 -361 -74q-86 0 -156.5 25.5t-120 70t-83.5 106t-50 132.5t-16 150zM285 535h467q-4 147 -65.5 215.5 t-176.5 68.5q-91 0 -154.5 -70t-70.5 -214z" />
<glyph unicode="f" horiz-adv-x="632" d="M27 795v141h141v63q0 76 28 140t72 106t100.5 72.5t111 45.5t106.5 19l47 -153q-283 -30 -283 -215v-78h213v-141h-213v-795h-182v795h-141z" />
<glyph unicode="g" horiz-adv-x="1067" d="M78 -147q0 39 18 72t48 55t55 35t53 22q-59 26 -93 69.5t-34 98.5q0 46 26.5 82t73.5 75q-49 59 -68 100q-32 69 -32 148q0 38 8 78.5t34.5 91.5t68 89.5t116.5 65t172 26.5q79 0 158 -21q259 20 322 23l-52 -129h-123q38 -33 70.5 -95t32.5 -129q0 -53 -12 -101 t-41 -95.5t-74 -82t-116 -56t-161 -21.5q-38 0 -104.5 11.5t-95.5 27.5q-16 -15 -24 -23.5t-15.5 -24t-7.5 -32.5q0 -26 20.5 -42t82 -28.5t177.5 -21.5q105 -9 182 -25t125.5 -37.5t77.5 -53t40 -66t11 -80.5q0 -71 -38 -124.5t-104 -84t-144.5 -45.5t-169.5 -15 q-250 0 -356.5 68t-106.5 195zM268 -141q0 -61 75 -98t198 -37q143 0 204.5 33.5t61.5 101.5q0 24 -20.5 43.5t-67.5 36.5t-133 28.5t-209 16.5q-50 -17 -79.5 -52.5t-29.5 -72.5zM315 606q0 -104 56 -159.5t159 -55.5q58 0 100.5 19t65.5 51.5t34 70.5t11 82 q0 100 -53 153.5t-160 53.5q-99 0 -156 -55.5t-57 -159.5z" />
<glyph unicode="h" horiz-adv-x="1042" d="M139 0v1346h183v-541q23 35 51.5 66.5t84 61.5t115.5 30q77 0 135 -19t94.5 -51.5t59.5 -80t32 -100t9 -116.5v-596h-182v588q0 43 -3 73.5t-14 62t-29.5 51t-51.5 32t-78 12.5q-76 0 -132.5 -55t-90.5 -131v-633h-183z" />
<glyph unicode="i" horiz-adv-x="466" d="M135 1145v180h197v-180h-197zM141 0v936h185v-936h-185z" />
<glyph unicode="j" horiz-adv-x="458" d="M-57 -211q107 23 148.5 68.5t41.5 136.5v942h182v-924q0 -151 -80.5 -240t-230.5 -137zM125 1145v180h199v-180h-199z" />
<glyph unicode="k" horiz-adv-x="950" d="M139 0v1346h183v-787l352 377h198l-380 -406l430 -530h-213l-387 479v-479h-183z" />
<glyph unicode="l" horiz-adv-x="460" d="M139 0v1346h183v-1346h-183z" />
<glyph unicode="m" horiz-adv-x="1617" d="M117 936h166l34 -133q40 58 107 109t145 51q116 0 180 -40.5t115 -129.5q45 72 119 121t168 49q164 0 246 -89.5t82 -275.5v-598h-183v594q0 112 -37.5 168.5t-132.5 56.5q-80 0 -140.5 -58t-90.5 -138v-623h-182v594q0 121 -41.5 173t-132.5 52q-70 0 -130 -59t-87 -125 v-635h-183v721q0 46 -10.5 122t-11.5 93z" />
<glyph unicode="n" horiz-adv-x="1042" d="M117 936h166l32 -131q1 1 18 21.5t25.5 29t28.5 29t37.5 31t41 23t50 18.5t55.5 6q95 0 161.5 -27t103 -79.5t52 -117t15.5 -149.5v-590h-182v592q0 41 -3 70t-13 61t-28.5 51t-52 32t-79.5 13q-74 0 -131 -54.5t-92 -131.5v-633h-183v737q0 45 -10 111.5t-12 87.5z" />
<glyph unicode="o" horiz-adv-x="1058" d="M92 473q0 80 14 150t47 133.5t82.5 108.5t125 71.5t169.5 26.5q118 0 205 -38t136.5 -106.5t72.5 -154t23 -191.5t-23.5 -193t-73 -157.5t-136 -110t-204.5 -39.5t-205 39.5t-136.5 110t-73 157.5t-23.5 193zM281 473q0 -172 58.5 -264t190.5 -92q130 0 189 90t59 266 q0 177 -57.5 261.5t-190.5 84.5q-128 0 -188.5 -86t-60.5 -260z" />
<glyph unicode="p" horiz-adv-x="1046" d="M117 936h166l36 -131q108 158 242 158q85 0 152.5 -26.5t112 -72.5t74 -110.5t42 -136t12.5 -154.5q0 -100 -23 -186.5t-68 -155.5t-119.5 -108.5t-170.5 -39.5q-76 0 -143.5 35.5t-107.5 91.5v-469h-183v1022q0 116 -22 283zM319 254q40 -65 93 -101t135 -36 q219 0 219 350q0 183 -58.5 267.5t-183.5 84.5q-67 0 -120 -53.5t-85 -130.5v-381z" />
<glyph unicode="q" horiz-adv-x="1046" d="M92 463q0 103 23 191t69.5 158.5t123.5 110.5t177 40q134 0 242 -158l37 131h166q-23 -174 -23 -283v-1022h-182v469q-40 -56 -107 -91.5t-143 -35.5q-101 0 -177 39.5t-120 109t-65 155t-21 186.5zM281 467q0 -350 219 -350q83 0 136 36t93 101v381q-31 76 -86.5 130 t-122.5 54q-121 0 -180 -85.5t-59 -266.5z" />
<glyph unicode="r" horiz-adv-x="737" d="M117 936h166l32 -164q15 29 34.5 57.5t48 61t65.5 52.5t74 20q95 0 174 -48l-66 -153q-2 2 -15 10.5t-18 11.5t-17 10t-20.5 10t-20.5 7.5t-24.5 6t-25.5 1.5q-33 0 -60 -16.5t-47 -48t-32.5 -55.5t-26 -61t-16.5 -44v-594h-183v727q0 41 -3.5 79.5t-10.5 80.5t-8 49z " />
<glyph unicode="s" horiz-adv-x="886" d="M82 37l63 151q127 -50 176 -60q50 -11 107 -11q99 0 138.5 34.5t39.5 100.5q0 20 -6 36t-22.5 30t-28 22.5t-42.5 21t-44 17t-53 17.5q-10 3 -15 5q-54 17 -87 29.5t-78.5 37.5t-71.5 52.5t-45 71.5t-19 98q0 76 32 131t88 85t119 43.5t136 13.5q125 0 311 -62l-65 -153 q-62 28 -88.5 39t-71 21.5t-90.5 10.5q-182 0 -182 -123q0 -20 10 -37t23 -28.5t40.5 -24t46 -19t56.5 -18.5q134 -42 185 -69q145 -77 151 -232v-14q0 -74 -31 -130t-84.5 -88t-117.5 -47.5t-138 -15.5q-82 0 -176.5 17.5t-165.5 46.5z" />
<glyph unicode="t" horiz-adv-x="638" d="M27 795v143h151v244h184v-244h218v-143h-218v-568q0 -176 252 -227l-63 -166q-169 42 -271 144t-102 253v564h-151z" />
<glyph unicode="u" horiz-adv-x="1028" d="M139 346v590h183v-592q0 -51 5.5 -86t21.5 -70t52 -53t91 -18q131 0 215 186v633h182v-737q0 -45 10 -111.5t12 -87.5h-166l-32 131q-3 -4 -21 -26t-29 -34.5t-35 -33.5t-45.5 -33t-53 -21.5t-64.5 -9.5q-91 0 -156 27.5t-101.5 79t-52.5 116.5t-16 150z" />
<glyph unicode="v" horiz-adv-x="1050" d="M78 936h196l258 -713l252 713h189l-361 -936h-172z" />
<glyph unicode="w" horiz-adv-x="1544" d="M70 936h194l219 -711l213 625h176l201 -623l217 709h185l-314 -936h-186l-199 616l-215 -616h-190z" />
<glyph unicode="x" horiz-adv-x="966" d="M49 0l338 473l-315 463h211l209 -326l217 326h192l-317 -449l334 -487h-211l-226 346l-237 -346h-195z" />
<glyph unicode="y" horiz-adv-x="1040" d="M78 936h196l269 -686l231 686h189l-392 -1086q-43 -120 -115 -193.5t-206 -121.5l-60 154q147 40 181 133l82 217z" />
<glyph unicode="z" horiz-adv-x="874" d="M63 152l541 643h-483v141h624l66 -152l-539 -643h510v-141h-655z" />
<glyph unicode="{" horiz-adv-x="765" d="M98 471v145q49 2 80.5 26.5t45.5 65t21 92.5t12.5 109.5t14.5 115.5t32.5 110.5t61 94t106 67t161.5 28.5v-145q-73 0 -118 -28.5t-63.5 -76t-26 -106.5t-12.5 -123.5t-16.5 -122t-45 -107t-89.5 -75.5q58 -21 92 -68t45.5 -104t17 -122t13 -125.5t25 -109.5t62 -78.5 t116.5 -29.5v-146q-92 2 -159 27t-104 66t-60 93t-32 109.5t-14.5 115t-13 110.5t-22 94.5t-47 67.5t-83.5 30z" />
<glyph unicode="|" horiz-adv-x="526" d="M184 -340v1778h158v-1778h-158z" />
<glyph unicode="}" horiz-adv-x="765" d="M131 -96q72 0 116.5 29.5t62.5 78.5t25.5 109.5t13 125.5t17.5 122t46 104t92 68q-56 26 -89.5 75.5t-45 107t-17 122t-13.5 123.5t-26.5 106.5t-63.5 76t-118 28.5v145q93 -3 161.5 -28.5t106.5 -67t61.5 -94t32.5 -110.5t15 -115.5t13 -109.5t21 -92.5t45.5 -65 t80.5 -26.5v-145q-51 -4 -83.5 -30t-47 -67.5t-22 -94.5t-13.5 -110.5t-15 -115t-32.5 -109.5t-60.5 -93t-104 -66t-159 -27v146z" />
<glyph unicode="~" d="M55 399q0 104 70 170t188 66q62 0 127 -26.5t109 -58.5t88.5 -58.5t69.5 -26.5q71 0 106 34.5t35 116.5l147 -79q0 -103 -72 -169.5t-190 -66.5q-59 0 -122.5 27t-107 60t-89 60t-72.5 27q-70 0 -103.5 -34.5t-33.5 -118.5z" />
<glyph unicode="&#xa1;" horiz-adv-x="526" d="M162 1126v199h205v-199h-205zM172 0v965h182v-965h-182z" />
<glyph unicode="&#xa2;" horiz-adv-x="903" d="M92 461q0 210 88.5 338.5t268.5 154.5v191h151v-191q108 -13 223 -57l-63 -152q-91 46 -160 62v-680q82 18 166 63l63 -151q-73 -37 -229 -57v-187h-151v187q-177 24 -267 151.5t-90 327.5zM281 461q0 -278 168 -328v674q-88 -24 -128 -110.5t-40 -235.5z" />
<glyph unicode="&#xa3;" d="M94 645v146h150v32q0 92 18.5 167.5t47.5 128.5t76 95t92 67.5t109.5 45t114.5 29.5t119 20l56 -172q-153 -14 -209 -30q-139 -38 -188 -155q-31 -75 -31 -190v-38h331v-146h-331v-481h557v-164h-897v164h135v481h-150z" />
<glyph unicode="&#xa4;" d="M-2 455l49 157h150v50q0 7 -1 22.5t-1 22.5q0 4 1 11t1 11h-199l49 158h170q86 463 545 463q174 0 338 -54l-53 -172q-151 68 -285 68q-148 0 -226 -79t-108 -226h549l-49 -158h-520v-117h487l-49 -157h-424q25 -162 102 -248t226 -86q22 0 43 2t47 8.5t39.5 9.5t46 15 t39.5 14.5t47 19t43 17.5v-195q-145 -49 -303 -49q-466 0 -541 492h-213z" />
<glyph unicode="&#xa5;" d="M6 1325h227l304 -553l297 553h213l-383 -672h245v-143h-278v-125h278v-145h-278v-240h-205v240h-276v145h276v125h-276v143h241z" />
<glyph unicode="&#xa6;" horiz-adv-x="526" d="M182 -160v479h162v-479h-162zM182 735v479h162v-479h-162z" />
<glyph unicode="&#xa7;" horiz-adv-x="929" d="M96 680q0 155 127 217q-94 69 -94 180q0 76 32 131t87 85t118 43.5t136 13.5q113 0 284 -62l-63 -151q-6 3 -29.5 15t-30.5 15.5t-26.5 12t-31 11.5t-29.5 7.5t-35 6t-37 1.5q-185 0 -185 -123q0 -35 28.5 -60.5t74 -41.5t100 -31.5t109.5 -38.5t100.5 -54t74 -85.5 t28.5 -126.5q0 -71 -32 -123.5t-87 -83.5q80 -65 80 -190q0 -74 -31.5 -130t-85 -88t-118 -47.5t-138.5 -15.5q-148 0 -313 64l63 153q15 -6 48 -21t49.5 -21.5t44 -15t54.5 -12t58 -3.5q99 0 138.5 34.5t39.5 100.5q0 40 -28 68.5t-73 45.5t-99 32.5t-108 36.5t-99 50 t-73 80.5t-28 120.5zM285 684q0 -22 12.5 -41t30 -31.5t48 -25.5t55.5 -21t65.5 -20.5t64.5 -20.5q84 36 84 119q0 17 -4 32t-13.5 28t-18.5 22.5t-26.5 19.5t-30 16.5t-37 15t-38.5 13t-43 13.5t-43 14q-106 -24 -106 -133z" />
<glyph unicode="&#xa8;" horiz-adv-x="466" d="M-12 1155v170h172v-170h-172zM305 1155v170h172v-170h-172z" />
<glyph unicode="&#xa9;" horiz-adv-x="1474" d="M51 664q0 142 53.5 269t145.5 218t219 144t268 53q144 0 271 -52.5t218 -143t144 -217.5t53 -271q0 -142 -53.5 -269t-145.5 -218t-219 -144t-268 -53t-268 53t-219 144t-145.5 218t-53.5 269zM172 664q0 -154 75.5 -287t205.5 -211t284 -78q115 0 220 46.5t180.5 124 t120.5 184t45 221.5q0 156 -74.5 288t-205 209.5t-286.5 77.5q-158 0 -288 -77.5t-203.5 -209t-73.5 -288.5zM377 659q0 69 11.5 128t38 112t67.5 90.5t104 59.5t143 22q112 0 207 -31l-41 -108q-94 41 -166 41q-65 0 -111 -23t-72.5 -66t-38 -97t-11.5 -125 q0 -155 52 -238.5t173 -83.5q70 0 185 47l38 -108q-107 -37 -221 -37q-186 0 -272 110.5t-86 306.5z" />
<glyph unicode="&#xaa;" d="M279 936q0 188 307 188h49v27q0 45 -20.5 67.5t-75.5 22.5q-108 0 -199 -43l-37 92q109 39 240 39q95 0 154 -41.5t59 -122.5v-207q0 -18 3 -42t9 -60.5t8 -54.5h-112q0 2 -10.5 28t-10.5 29q-68 -72 -151 -72q-98 0 -155.5 38.5t-57.5 111.5zM401 940q0 -66 107 -66 q78 0 127 68v98h-33q-112 0 -156.5 -22t-44.5 -78z" />
<glyph unicode="&#xab;" horiz-adv-x="792" d="M57 553l191 373h172l-199 -369l197 -369h-170zM375 553l190 373h174l-198 -369l196 -369h-172z" />
<glyph unicode="&#xac;" d="M51 561v146h940v-506h-164v360h-776z" />
<glyph unicode="&#xad;" horiz-adv-x="692" d="M57 401v156h578v-156h-578z" />
<glyph unicode="&#xae;" horiz-adv-x="1474" d="M51 664q0 142 53.5 269t145.5 218t219 144t268 53q144 0 271 -52.5t218 -143t144 -217.5t53 -271q0 -142 -53.5 -269t-145.5 -218t-219 -144t-268 -53t-268 53t-219 144t-145.5 218t-53.5 269zM172 664q0 -154 75.5 -287t205.5 -211t284 -78q115 0 220 46.5t180.5 124 t120.5 184t45 221.5q0 156 -74.5 288t-205 209.5t-286.5 77.5q-158 0 -288 -77.5t-203.5 -209t-73.5 -288.5zM467 264v799h278q52 0 97 -11t85 -35t63.5 -70t23.5 -109q0 -92 -51 -154.5t-166 -73.5l266 -346h-154l-262 342h-53v-342h-127zM594 705h160q131 0 131 133 q0 123 -133 123h-158v-256z" />
<glyph unicode="&#xaf;" horiz-adv-x="466" d="M-18 1137v145h503v-145h-503z" />
<glyph unicode="&#xb0;" horiz-adv-x="839" d="M96 938q0 136 95 229t229 93t229.5 -93t95.5 -229t-96 -225.5t-231 -89.5q-134 0 -228 89.5t-94 225.5zM225 938q0 -79 58 -134.5t135 -55.5q78 0 136 56t58 134q0 86 -54.5 142.5t-137.5 56.5q-84 0 -139.5 -56.5t-55.5 -142.5z" />
<glyph unicode="&#xb1;" d="M82 2v145h889v-145h-889zM90 496v145h354v236h164v-236h355v-145h-355v-250h-164v250h-354z" />
<glyph unicode="&#xb2;" horiz-adv-x="714" d="M92 750q20 15 82.5 59.5t106 78.5t94.5 79t78.5 87.5t27.5 78.5q0 70 -36 95t-105 25q-76 0 -188 -53l-37 105q78 27 124 36t103 9q54 0 100.5 -11t86.5 -35t63.5 -67.5t23.5 -101.5q0 -31 -12 -63.5t-39 -66t-50 -58.5t-66.5 -59.5t-64.5 -50.5t-68.5 -49.5t-55.5 -39.5 h361v-97h-492z" />
<glyph unicode="&#xb3;" horiz-adv-x="714" d="M100 659l39 105q92 -37 183 -37q68 0 111.5 28t43.5 81q0 40 -17 66.5t-51.5 39t-73 17t-95.5 4.5v92q112 0 165.5 21.5t53.5 86.5q0 54 -32.5 72t-94.5 18q-66 0 -178 -51l-39 107q38 18 104 29.5t115 11.5q121 0 190.5 -47t69.5 -138q0 -69 -48 -108t-120 -47 q77 -11 131.5 -53t54.5 -123q0 -46 -18 -81.5t-47 -57.5t-69 -36.5t-79 -20t-82 -5.5q-136 0 -217 26z" />
<glyph unicode="&#xb4;" horiz-adv-x="466" d="M39 1085l197 240h192l-256 -240h-133z" />
<glyph unicode="&#xb6;" horiz-adv-x="1105" d="M123 952q0 49 7.5 94t32.5 98t65.5 91t112.5 64t167 26h516v-1710h-164v1565h-205q-98 0 -160.5 -62.5t-62.5 -179.5q0 -88 61.5 -153.5t139.5 -86.5v-1083h-162v967q-94 11 -164 48.5t-108.5 91t-57 111.5t-18.5 119z" />
<glyph unicode="&#xb7;" horiz-adv-x="526" d="M164 467v203h198v-203h-198z" />
<glyph unicode="&#xb8;" horiz-adv-x="466" d="M4 -391l41 133q132 -16 148 -16q98 0 98 71q0 26 -10 40t-47 23t-107 9l43 162h149l-20 -86q69 0 107 -45.5t38 -98.5q0 -98 -69.5 -153.5t-171.5 -55.5q-74 0 -199 17z" />
<glyph unicode="&#xb9;" horiz-adv-x="714" d="M162 1190l182 135h123v-684h-133v561l-135 -106z" />
<glyph unicode="&#xba;" d="M260 1081q0 118 65.5 193.5t202.5 75.5q139 0 203 -73.5t64 -195.5q0 -121 -65 -197.5t-202 -76.5q-138 0 -203 76t-65 198zM381 1081q0 -188 147 -188q144 0 144 188q0 95 -34.5 138t-109.5 43q-147 0 -147 -181z" />
<glyph unicode="&#xbb;" horiz-adv-x="792" d="M55 926h172l191 -373l-191 -365h-170l197 369zM373 926h174l190 -373l-190 -365h-172l196 369z" />
<glyph unicode="&#xbc;" horiz-adv-x="1605" d="M131 1190l184 135h109l14 -684h-135v561l-133 -106zM262 0l744 1288h163l-745 -1288h-162zM813 276l332 408h139v-408h109v-96h-109v-180h-133v180h-295zM924 276h227v281z" />
<glyph unicode="&#xbd;" horiz-adv-x="1605" d="M127 1190l182 135h123v-684h-133v561l-135 -106zM256 0l741 1288h166l-743 -1288h-164zM932 102q21 16 83 59.5t105.5 77.5t94.5 78.5t78.5 87t27.5 78.5q0 70 -36 94.5t-105 24.5q-75 0 -187 -53l-37 104q78 27 123.5 36t102.5 9q54 0 100.5 -11t86.5 -34.5t63.5 -66.5 t23.5 -101q0 -28 -11 -57.5t-26.5 -54.5t-44 -55t-50 -50.5t-59 -50t-57 -43.5t-58 -41.5t-48.5 -34.5h358v-98h-491z" />
<glyph unicode="&#xbe;" horiz-adv-x="1605" d="M98 659l37 105q93 -37 184 -37q68 0 112 28t44 81q0 32 -12 55.5t-32 37t-52 21.5t-65 10.5t-78 2.5v92q113 0 167 21.5t54 86.5q0 54 -33 72t-96 18q-66 0 -178 -51l-37 107q38 18 104 29.5t115 11.5q120 0 189 -47t69 -138q0 -69 -47 -108t-119 -47q77 -11 130.5 -53 t53.5 -123q0 -56 -26.5 -97.5t-71 -63t-93 -31t-102.5 -9.5q-136 0 -217 26zM326 0l741 1288h166l-744 -1288h-163zM856 276l332 408h139v-408h109v-96h-109v-180h-133v180h-295zM967 276h227v281z" />
<glyph unicode="&#xbf;" horiz-adv-x="890" d="M104 307q0 57 24.5 107t62 84.5t80.5 71t80.5 67.5t62 74t24.5 90v176h187v-186q0 -77 -33.5 -138.5t-81 -101t-95 -74.5t-81 -77.5t-33.5 -92.5q0 -91 44 -130.5t149 -39.5q57 0 149.5 22t147.5 50l36 -168q-69 -24 -165.5 -42.5t-167.5 -18.5q-61 0 -110.5 6.5t-104 27 t-91 55t-60.5 95.5t-24 143zM428 1126v199h205v-199h-205z" />
<glyph unicode="&#xc0;" horiz-adv-x="1345" d="M63 0l539 1325h180l500 -1325h-225l-131 375h-508l-139 -375h-216zM475 528h399l-192 559zM498 1649h184l205 -240h-135z" />
<glyph unicode="&#xc1;" horiz-adv-x="1345" d="M63 0l539 1325h180l500 -1325h-225l-131 375h-508l-139 -375h-216zM475 528h399l-192 559zM498 1407l196 240h193l-256 -240h-133z" />
<glyph unicode="&#xc2;" horiz-adv-x="1345" d="M63 0l539 1325h180l500 -1325h-225l-131 375h-508l-139 -375h-216zM426 1425l192 234h140l188 -234h-141l-117 140l-123 -140h-139zM475 528h399l-192 559z" />
<glyph unicode="&#xc3;" horiz-adv-x="1345" d="M63 0l539 1325h180l500 -1325h-225l-131 375h-508l-139 -375h-216zM391 1448q36 82 81.5 112.5t125.5 30.5q42 0 104.5 -42t90.5 -42q36 0 62.5 28t35.5 60l106 -47q-22 -68 -76 -109.5t-124 -41.5q-39 0 -76 21.5t-68.5 43t-56.5 21.5q-39 0 -64.5 -24.5t-35.5 -59.5z M475 528h399l-192 559z" />
<glyph unicode="&#xc4;" horiz-adv-x="1345" d="M63 0l539 1325h180l500 -1325h-225l-131 375h-508l-139 -375h-216zM442 1399v170h172v-170h-172zM475 528h399l-192 559zM760 1399v170h172v-170h-172z" />
<glyph unicode="&#xc5;" horiz-adv-x="1345" d="M63 0l539 1325h180l500 -1325h-225l-131 375h-508l-139 -375h-216zM475 528h399l-192 559zM528 1542q0 70 49.5 119t120.5 49q72 0 121 -48t49 -120q0 -70 -49.5 -119t-120.5 -49q-69 0 -119.5 49.5t-50.5 118.5zM606 1544q0 -34 26.5 -63t65.5 -29q44 0 67 26.5t23 65.5 q0 40 -24 66t-66 26q-40 0 -66 -27.5t-26 -64.5z" />
<glyph unicode="&#xc6;" horiz-adv-x="1933" d="M63 0l752 1325h930v-158h-690l71 -403h576v-158h-547l80 -448h528v-158h-706l-62 375h-495l-205 -375h-232zM582 528h391l-90 557z" />
<glyph unicode="&#xc7;" horiz-adv-x="1144" d="M125 662q0 115 18 213.5t61 188t109.5 152t169 99.5t234.5 37q172 0 336 -54l-66 -174q-158 68 -270 68q-106 0 -181.5 -38.5t-118.5 -111.5t-62 -165.5t-19 -212.5q0 -101 11.5 -182t38 -149.5t68.5 -114.5t105.5 -71.5t145.5 -25.5q50 0 104 12.5t88 24.5t104 41 l66 -174q-175 -61 -340 -64l-4 -16q69 0 109 -46t40 -98q0 -98 -70.5 -153.5t-172.5 -55.5q-74 0 -199 17l41 133q115 -14 147 -14q99 0 99 69q0 26 -10 40t-47 23t-107 9l29 104q-238 37 -347.5 217.5t-109.5 471.5z" />
<glyph unicode="&#xc8;" horiz-adv-x="1144" d="M197 0v1325h759v-158h-555v-403h512v-158h-512v-448h574v-158h-778zM356 1649h193l196 -240h-135z" />
<glyph unicode="&#xc9;" horiz-adv-x="1144" d="M197 0v1325h759v-158h-555v-403h512v-158h-512v-448h574v-158h-778zM377 1386l196 240h193l-256 -240h-133z" />
<glyph unicode="&#xca;" horiz-adv-x="1144" d="M197 0v1325h759v-158h-555v-403h512v-158h-512v-448h574v-158h-778zM317 1413l193 234h139l189 -234h-142l-116 139l-123 -139h-140z" />
<glyph unicode="&#xcb;" horiz-adv-x="1144" d="M197 0v1325h759v-158h-555v-403h512v-158h-512v-448h574v-158h-778zM346 1399v170h172v-170h-172zM664 1399v170h172v-170h-172z" />
<glyph unicode="&#xcc;" horiz-adv-x="548" d="M45 1657h193l196 -240h-135zM172 0v1325h205v-1325h-205z" />
<glyph unicode="&#xcd;" horiz-adv-x="550" d="M90 1417l197 240h192l-256 -240h-133zM174 0v1325h205v-1325h-205z" />
<glyph unicode="&#xce;" horiz-adv-x="550" d="M14 1417l193 234h139l189 -234h-142l-117 139l-122 -139h-140zM172 0v1325h205v-1325h-205z" />
<glyph unicode="&#xcf;" horiz-adv-x="548" d="M31 1452v170h172v-170h-172zM172 0v1325h205v-1325h-205zM348 1452v170h172v-170h-172z" />
<glyph unicode="&#xd0;" horiz-adv-x="1333" d="M59 674v143h138v508h378q225 0 362 -64t204 -208t67 -385q0 -359 -149 -513.5t-484 -154.5h-378v674h-138zM401 158h193q100 0 172.5 25.5t125.5 83.5t79 157.5t26 241.5q0 153 -26.5 253t-83.5 154t-130 74t-182 20h-174v-350h256v-143h-256v-516z" />
<glyph unicode="&#xd1;" horiz-adv-x="1435" d="M197 0v1325h299l542 -1083v1083h201v-1325h-303l-547 1083v-1083h-192zM403 1446q36 82 81.5 112.5t125.5 30.5q42 0 104.5 -42t90.5 -42q36 0 62.5 28t35.5 60l107 -47q-22 -68 -76.5 -109.5t-124.5 -41.5q-39 0 -76 21.5t-68.5 43t-56.5 21.5q-39 0 -64.5 -24.5 t-35.5 -59.5z" />
<glyph unicode="&#xd2;" horiz-adv-x="1439" d="M125 657q0 121 19.5 222.5t64.5 190t113.5 149.5t170.5 96t232 35q590 0 590 -693q0 -122 -19 -223.5t-63 -190t-111.5 -149.5t-168.5 -96t-230 -35q-135 0 -238.5 35t-170.5 95.5t-110 149.5t-61 190t-18 224zM336 657q0 -275 90 -405.5t297 -130.5q206 0 293.5 136 t87.5 400q0 271 -89.5 403t-291.5 132q-204 0 -295.5 -133t-91.5 -402zM457 1649h192l197 -240h-135z" />
<glyph unicode="&#xd3;" horiz-adv-x="1439" d="M125 657q0 121 19.5 222.5t64.5 190t113.5 149.5t170.5 96t232 35q590 0 590 -693q0 -122 -19 -223.5t-63 -190t-111.5 -149.5t-168.5 -96t-230 -35q-135 0 -238.5 35t-170.5 95.5t-110 149.5t-61 190t-18 224zM336 657q0 -275 90 -405.5t297 -130.5q206 0 293.5 136 t87.5 400q0 271 -89.5 403t-291.5 132q-204 0 -295.5 -133t-91.5 -402zM559 1407l197 240h192l-256 -240h-133z" />
<glyph unicode="&#xd4;" horiz-adv-x="1439" d="M125 657q0 121 19.5 222.5t64.5 190t113.5 149.5t170.5 96t232 35q590 0 590 -693q0 -122 -19 -223.5t-63 -190t-111.5 -149.5t-168.5 -96t-230 -35q-135 0 -238.5 35t-170.5 95.5t-110 149.5t-61 190t-18 224zM336 657q0 -275 90 -405.5t297 -130.5q206 0 293.5 136 t87.5 400q0 271 -89.5 403t-291.5 132q-204 0 -295.5 -133t-91.5 -402zM459 1413l192 234h140l188 -234h-141l-117 139l-123 -139h-139z" />
<glyph unicode="&#xd5;" horiz-adv-x="1439" d="M125 657q0 121 19.5 222.5t64.5 190t113.5 149.5t170.5 96t232 35q590 0 590 -693q0 -122 -19 -223.5t-63 -190t-111.5 -149.5t-168.5 -96t-230 -35q-135 0 -238.5 35t-170.5 95.5t-110 149.5t-61 190t-18 224zM336 657q0 -275 90 -405.5t297 -130.5q206 0 293.5 136 t87.5 400q0 271 -89.5 403t-291.5 132q-204 0 -295.5 -133t-91.5 -402zM424 1446q36 82 81.5 112.5t125.5 30.5q34 0 69.5 -21t67.5 -42t57 -21q36 0 63 28t36 60l106 -47q-22 -68 -76.5 -109.5t-124.5 -41.5q-39 0 -75.5 21.5t-68 43t-56.5 21.5q-39 0 -65 -24.5t-36 -59.5 z" />
<glyph unicode="&#xd6;" horiz-adv-x="1439" d="M125 657q0 121 19.5 222.5t64.5 190t113.5 149.5t170.5 96t232 35q590 0 590 -693q0 -122 -19 -223.5t-63 -190t-111.5 -149.5t-168.5 -96t-230 -35q-135 0 -238.5 35t-170.5 95.5t-110 149.5t-61 190t-18 224zM336 657q0 -275 90 -405.5t297 -130.5q206 0 293.5 136 t87.5 400q0 271 -89.5 403t-291.5 132q-204 0 -295.5 -133t-91.5 -402zM477 1397v170h172v-170h-172zM795 1397v170h172v-170h-172z" />
<glyph unicode="&#xd7;" d="M96 172l318 317l-318 318l115 115l317 -318l318 318l115 -115l-318 -318l318 -317l-115 -115l-318 318l-317 -318z" />
<glyph unicode="&#xd8;" horiz-adv-x="1439" d="M33 -2l184 217q-92 161 -92 442q0 121 19.5 222.5t64.5 190t113.5 149.5t170.5 96t232 35q231 0 369 -107l155 184l135 -122l-167 -197q98 -167 98 -451q0 -122 -19 -223.5t-63 -190t-111.5 -149.5t-168.5 -96t-230 -35q-241 0 -383 117l-174 -205zM336 657 q0 -168 31 -268l608 715q-91 88 -252 88q-204 0 -295.5 -133t-91.5 -402zM459 217q90 -96 264 -96q206 0 293.5 136t87.5 400q0 171 -35 277z" />
<glyph unicode="&#xd9;" horiz-adv-x="1435" d="M197 489v836h204v-815q0 -116 22 -194t67 -120t102 -58.5t139 -16.5q152 0 227.5 89.5t75.5 299.5v815h205v-840q0 -522 -508 -522q-276 0 -405 129t-129 397zM465 1649h192l197 -240h-135z" />
<glyph unicode="&#xda;" horiz-adv-x="1435" d="M197 489v836h204v-815q0 -116 22 -194t67 -120t102 -58.5t139 -16.5q152 0 227.5 89.5t75.5 299.5v815h205v-840q0 -522 -508 -522q-276 0 -405 129t-129 397zM565 1389l197 239h192l-256 -239h-133z" />
<glyph unicode="&#xdb;" horiz-adv-x="1435" d="M197 489v836h204v-815q0 -116 22 -194t67 -120t102 -58.5t139 -16.5q152 0 227.5 89.5t75.5 299.5v815h205v-840q0 -522 -508 -522q-276 0 -405 129t-129 397zM457 1413l192 234h139l189 -234h-141l-117 139l-123 -139h-139z" />
<glyph unicode="&#xdc;" horiz-adv-x="1435" d="M197 489v836h204v-815q0 -116 22 -194t67 -120t102 -58.5t139 -16.5q152 0 227.5 89.5t75.5 299.5v815h205v-840q0 -522 -508 -522q-276 0 -405 129t-129 397zM483 1399v170h172v-170h-172zM801 1399v170h172v-170h-172z" />
<glyph unicode="&#xdd;" horiz-adv-x="1208" d="M31 1325h231l354 -553l345 553h217l-467 -729v-596h-205v588zM387 1417l197 240h192l-256 -240h-133z" />
<glyph unicode="&#xde;" horiz-adv-x="1183" d="M197 0v1325h204v-252h220q105 0 185.5 -20t143 -64t95 -120t32.5 -183q0 -399 -434 -399h-242v-287h-204zM401 444h226q117 0 179 54.5t62 187.5q0 57 -13 99t-34.5 67t-55.5 39t-68.5 19t-80.5 5h-215v-471z" />
<glyph unicode="&#xdf;" horiz-adv-x="1056" d="M139 0v965q0 381 342 381q69 0 129 -15.5t112.5 -49.5t83 -96t30.5 -147q0 -50 -16 -95.5t-37 -76.5t-54.5 -61.5t-55.5 -46t-53.5 -34.5t-35.5 -22q7 -3 46.5 -18.5t59.5 -24t60.5 -30.5t64 -41.5t55 -53t49 -69.5t30 -87t12.5 -108q0 -97 -32.5 -172.5t-85 -122.5 t-125 -78t-147 -43t-157.5 -12l61 158q138 0 218.5 72t80.5 202q0 50 -13.5 94t-33 74.5t-52 58t-58.5 43.5t-66 32.5t-61 23t-56 16.5v146q89 58 126 94q89 87 89 188q0 79 -50.5 119.5t-117.5 40.5q-80 0 -119.5 -47t-39.5 -170v-987h-183z" />
<glyph unicode="&#xe0;" horiz-adv-x="1026" d="M92 246q0 75 24 132.5t79.5 104t157.5 71t247 24.5h84v59q0 84 -34.5 133t-125.5 49q-157 0 -329 -82l-64 152q196 72 399 72q155 0 246.5 -75t91.5 -224v-375q0 -33 5.5 -78.5t14.5 -107.5t13 -101h-170q0 4 -16 51t-17 51q-44 -51 -111 -89t-143 -38q-164 0 -258 69 t-94 202zM225 1325h193l196 -240h-135zM285 254q0 -67 51 -102t137 -35q70 0 126.5 30.5t86.5 79.5v224h-57q-189 0 -266.5 -47t-77.5 -150z" />
<glyph unicode="&#xe1;" horiz-adv-x="1026" d="M92 246q0 75 24 132.5t79.5 104t157.5 71t247 24.5h84v59q0 84 -34.5 133t-125.5 49q-157 0 -329 -82l-64 152q196 72 399 72q155 0 246.5 -75t91.5 -224v-375q0 -33 5.5 -78.5t14.5 -107.5t13 -101h-170q0 4 -16 51t-17 51q-44 -51 -111 -89t-143 -38q-164 0 -258 69 t-94 202zM285 254q0 -67 51 -102t137 -35q70 0 126.5 30.5t86.5 79.5v224h-57q-189 0 -266.5 -47t-77.5 -150zM332 1085l196 240h193l-256 -240h-133z" />
<glyph unicode="&#xe2;" horiz-adv-x="1026" d="M92 246q0 75 24 132.5t79.5 104t157.5 71t247 24.5h84v59q0 84 -34.5 133t-125.5 49q-157 0 -329 -82l-64 152q196 72 399 72q155 0 246.5 -75t91.5 -224v-375q0 -33 5.5 -78.5t14.5 -107.5t13 -101h-170q0 4 -16 51t-17 51q-44 -51 -111 -89t-143 -38q-164 0 -258 69 t-94 202zM219 1092l193 233h139l188 -233h-141l-117 139l-123 -139h-139zM285 254q0 -67 51 -102t137 -35q70 0 126.5 30.5t86.5 79.5v224h-57q-189 0 -266.5 -47t-77.5 -150z" />
<glyph unicode="&#xe3;" horiz-adv-x="1026" d="M92 246q0 75 24 132.5t79.5 104t157.5 71t247 24.5h84v59q0 84 -34.5 133t-125.5 49q-157 0 -329 -82l-64 152q196 72 399 72q155 0 246.5 -75t91.5 -224v-375q0 -33 5.5 -78.5t14.5 -107.5t13 -101h-170q0 4 -16 51t-17 51q-44 -51 -111 -89t-143 -38q-164 0 -258 69 t-94 202zM180 1128q36 82 82 113t125 31q42 0 104.5 -42t90.5 -42q35 0 61.5 27t42.5 61l100 -47q-22 -68 -76 -110t-124 -42q-39 0 -76 21.5t-68.5 43t-56.5 21.5q-39 0 -64.5 -24.5t-35.5 -59.5zM285 254q0 -67 51 -102t137 -35q70 0 126.5 30.5t86.5 79.5v224h-57 q-189 0 -266.5 -47t-77.5 -150z" />
<glyph unicode="&#xe4;" horiz-adv-x="1026" d="M92 246q0 75 24 132.5t79.5 104t157.5 71t247 24.5h84v59q0 84 -34.5 133t-125.5 49q-157 0 -329 -82l-64 152q196 72 399 72q155 0 246.5 -75t91.5 -224v-375q0 -33 5.5 -78.5t14.5 -107.5t13 -101h-170q0 4 -16 51t-17 51q-44 -51 -111 -89t-143 -38q-164 0 -258 69 t-94 202zM258 1096v182h172v-182h-172zM285 254q0 -67 51 -102t137 -35q70 0 126.5 30.5t86.5 79.5v224h-57q-189 0 -266.5 -47t-77.5 -150zM578 1096v182h174v-182h-174z" />
<glyph unicode="&#xe5;" horiz-adv-x="1026" d="M92 246q0 75 24 132.5t79.5 104t157.5 71t247 24.5h84v59q0 84 -34.5 133t-125.5 49q-157 0 -329 -82l-64 152q196 72 399 72q155 0 246.5 -75t91.5 -224v-375q0 -33 5.5 -78.5t14.5 -107.5t13 -101h-170q0 4 -16 51t-17 51q-44 -51 -111 -89t-143 -38q-164 0 -258 69 t-94 202zM285 254q0 -67 51 -102t137 -35q70 0 126.5 30.5t86.5 79.5v224h-57q-189 0 -266.5 -47t-77.5 -150zM322 1206q0 70 49.5 119t120.5 49q72 0 121 -48t49 -120q0 -70 -49.5 -119t-120.5 -49q-69 0 -119.5 49.5t-50.5 118.5zM399 1208q0 -34 27 -63t66 -29 q44 0 67 26.5t23 65.5q0 40 -24 66t-66 26q-40 0 -66.5 -27.5t-26.5 -64.5z" />
<glyph unicode="&#xe6;" horiz-adv-x="1611" d="M92 246q0 75 24 132.5t79.5 104t157.5 71t247 24.5h86v59q0 84 -35.5 133t-126.5 49q-157 0 -329 -82l-64 152q196 72 399 72q94 0 166.5 -35t112.5 -99q107 134 283 134q122 0 206 -37.5t131 -113t67 -175t20 -238.5h-646q20 -284 248 -284q125 0 285 80l59 -144 q-161 -74 -360 -74q-121 0 -208.5 51t-121.5 128q-138 -179 -328 -179q-164 0 -258 69t-94 202zM285 254q0 -67 51 -102t137 -35q67 0 124.5 39.5t90.5 93.5v192h-59q-191 0 -267.5 -43.5t-76.5 -144.5zM870 535h461q-4 148 -63 216t-174 68q-91 0 -154 -70t-70 -214z" />
<glyph unicode="&#xe7;" horiz-adv-x="903" d="M92 461q0 233 113 365t332 132q59 0 141.5 -18t134.5 -39l-55 -158q-126 74 -223 74q-133 0 -193.5 -87t-60.5 -269q0 -166 63.5 -254t187.5 -88q96 0 234 76l53 -160q-92 -42 -246 -58l-8 -36q69 0 107.5 -44.5t38.5 -95.5q0 -95 -69.5 -152t-170.5 -57q-74 0 -199 17 l33 127q124 -15 156 -15q42 0 73 19t31 57q0 26 -12 40.5t-50 23t-108 8.5l31 117q-162 30 -248 156.5t-86 318.5z" />
<glyph unicode="&#xe8;" horiz-adv-x="1026" d="M92 459q0 70 11.5 136t41 134t75 118t120 82t168.5 32q98 0 171 -25t121 -71t77 -117t41 -155.5t12 -195.5h-643q20 -284 248 -284q124 0 284 80l60 -144q-161 -74 -361 -74q-86 0 -156.5 25.5t-120 70t-83.5 106t-50 132.5t-16 150zM252 1325h192l197 -240h-135z M285 535h467q-4 147 -65.5 215.5t-176.5 68.5q-91 0 -154.5 -70t-70.5 -214z" />
<glyph unicode="&#xe9;" horiz-adv-x="1026" d="M92 459q0 70 11.5 136t41 134t75 118t120 82t168.5 32q98 0 171 -25t121 -71t77 -117t41 -155.5t12 -195.5h-643q20 -284 248 -284q124 0 284 80l60 -144q-161 -74 -361 -74q-86 0 -156.5 25.5t-120 70t-83.5 106t-50 132.5t-16 150zM285 535h467q-4 147 -65.5 215.5 t-176.5 68.5q-91 0 -154.5 -70t-70.5 -214zM360 1085l197 240h193l-256 -240h-134z" />
<glyph unicode="&#xea;" horiz-adv-x="1026" d="M92 459q0 70 11.5 136t41 134t75 118t120 82t168.5 32q98 0 171 -25t121 -71t77 -117t41 -155.5t12 -195.5h-643q20 -284 248 -284q124 0 284 80l60 -144q-161 -74 -361 -74q-86 0 -156.5 25.5t-120 70t-83.5 106t-50 132.5t-16 150zM260 1092l193 233h139l188 -233h-141 l-117 139l-123 -139h-139zM285 535h467q-4 147 -65.5 215.5t-176.5 68.5q-91 0 -154.5 -70t-70.5 -214z" />
<glyph unicode="&#xeb;" horiz-adv-x="1026" d="M92 459q0 70 11.5 136t41 134t75 118t120 82t168.5 32q98 0 171 -25t121 -71t77 -117t41 -155.5t12 -195.5h-643q20 -284 248 -284q124 0 284 80l60 -144q-161 -74 -361 -74q-86 0 -156.5 25.5t-120 70t-83.5 106t-50 132.5t-16 150zM283 1114v170h172v-170h-172z M285 535h467q-4 147 -65.5 215.5t-176.5 68.5q-91 0 -154.5 -70t-70.5 -214zM600 1114v170h172v-170h-172z" />
<glyph unicode="&#xec;" horiz-adv-x="466" d="M18 1325h193l197 -240h-136zM141 0v936h185v-936h-185z" />
<glyph unicode="&#xed;" horiz-adv-x="466" d="M39 1085l197 240h192l-256 -240h-133zM141 0v936h185v-936h-185z" />
<glyph unicode="&#xee;" horiz-adv-x="466" d="M-16 1092l192 233h139l189 -233h-142l-116 139l-123 -139h-139zM139 0v936h185v-936h-185z" />
<glyph unicode="&#xef;" horiz-adv-x="466" d="M-12 1153v170h172v-170h-172zM141 0v936h185v-936h-185zM305 1153v170h172v-170h-172z" />
<glyph unicode="&#xf0;" d="M92 385q0 208 102.5 323t301.5 115q75 0 154.5 -47.5t119.5 -130.5q0 336 -219 461l-168 -113l-135 78l139 96q-43 12 -172 25l-65 174q237 -15 403 -86l141 98l133 -78l-137 -94q271 -188 271 -626q0 -613 -451 -613q-178 0 -298 119.5t-120 298.5zM299 385 q0 -126 58 -195t151 -69q60 0 102 16.5t75.5 56.5t50 113.5t16.5 181.5q-71 181 -246 181q-54 0 -93 -18t-60.5 -44.5t-34 -67t-16 -75.5t-3.5 -80z" />
<glyph unicode="&#xf1;" horiz-adv-x="1042" d="M117 936h166l32 -131q1 1 18 21.5t25.5 29t28.5 29t37.5 31t41 23t50 18.5t55.5 6q95 0 161.5 -27t103 -79.5t52 -117t15.5 -149.5v-590h-182v592q0 41 -3 70t-13 61t-28.5 51t-52 32t-79.5 13q-74 0 -131 -54.5t-92 -131.5v-633h-183v737q0 45 -10 111.5t-12 87.5z M217 1128q36 82 82 113t125 31q34 0 69.5 -21t67.5 -42t57 -21q36 0 63 27.5t40 60.5l102 -47q-22 -68 -76 -110t-124 -42q-39 0 -76 21.5t-68.5 43t-56.5 21.5q-39 0 -64.5 -24.5t-35.5 -59.5z" />
<glyph unicode="&#xf2;" horiz-adv-x="1058" d="M92 473q0 80 14 150t47 133.5t82.5 108.5t125 71.5t169.5 26.5q118 0 205 -38t136.5 -106.5t72.5 -154t23 -191.5t-23.5 -193t-73 -157.5t-136 -110t-204.5 -39.5t-205 39.5t-136.5 110t-73 157.5t-23.5 193zM281 473q0 -172 58.5 -264t190.5 -92q130 0 189 90t59 266 q0 177 -57.5 261.5t-190.5 84.5q-128 0 -188.5 -86t-60.5 -260zM297 1325h192l197 -240h-135z" />
<glyph unicode="&#xf3;" horiz-adv-x="1058" d="M92 473q0 80 14 150t47 133.5t82.5 108.5t125 71.5t169.5 26.5q118 0 205 -38t136.5 -106.5t72.5 -154t23 -191.5t-23.5 -193t-73 -157.5t-136 -110t-204.5 -39.5t-205 39.5t-136.5 110t-73 157.5t-23.5 193zM281 473q0 -172 58.5 -264t190.5 -92q130 0 189 90t59 266 q0 177 -57.5 261.5t-190.5 84.5q-128 0 -188.5 -86t-60.5 -260zM365 1085l196 240h193l-256 -240h-133z" />
<glyph unicode="&#xf4;" horiz-adv-x="1058" d="M92 473q0 80 14 150t47 133.5t82.5 108.5t125 71.5t169.5 26.5q118 0 205 -38t136.5 -106.5t72.5 -154t23 -191.5t-23.5 -193t-73 -157.5t-136 -110t-204.5 -39.5t-205 39.5t-136.5 110t-73 157.5t-23.5 193zM272 1092l193 233h139l189 -233h-142l-116 139l-123 -139 h-140zM281 473q0 -172 58.5 -264t190.5 -92q130 0 189 90t59 266q0 177 -57.5 261.5t-190.5 84.5q-128 0 -188.5 -86t-60.5 -260z" />
<glyph unicode="&#xf5;" horiz-adv-x="1058" d="M92 473q0 80 14 150t47 133.5t82.5 108.5t125 71.5t169.5 26.5q118 0 205 -38t136.5 -106.5t72.5 -154t23 -191.5t-23.5 -193t-73 -157.5t-136 -110t-204.5 -39.5t-205 39.5t-136.5 110t-73 157.5t-23.5 193zM209 1128q36 82 82 113t125 31q34 0 69.5 -21t67.5 -42 t57 -21q36 0 63 28t36 60l106 -47q-22 -68 -76.5 -110t-124.5 -42q-39 0 -75.5 21.5t-68 43t-56.5 21.5q-39 0 -65 -24.5t-36 -59.5zM281 473q0 -172 58.5 -264t190.5 -92q130 0 189 90t59 266q0 177 -57.5 261.5t-190.5 84.5q-128 0 -188.5 -86t-60.5 -260z" />
<glyph unicode="&#xf6;" horiz-adv-x="1058" d="M92 473q0 80 14 150t47 133.5t82.5 108.5t125 71.5t169.5 26.5q118 0 205 -38t136.5 -106.5t72.5 -154t23 -191.5t-23.5 -193t-73 -157.5t-136 -110t-204.5 -39.5t-205 39.5t-136.5 110t-73 157.5t-23.5 193zM281 473q0 -172 58.5 -264t190.5 -92q130 0 189 90t59 266 q0 177 -57.5 261.5t-190.5 84.5q-128 0 -188.5 -86t-60.5 -260zM285 1114v170h172v-170h-172zM602 1114v170h172v-170h-172z" />
<glyph unicode="&#xf7;" d="M82 383v133h889v-133h-889zM426 25v196h203v-196h-203zM426 688v197h203v-197h-203z" />
<glyph unicode="&#xf8;" horiz-adv-x="1058" d="M31 53l121 131q-60 120 -60 289q0 80 14 150t47 133.5t82.5 108.5t125 71.5t169.5 26.5q162 0 265 -80l108 118l125 -120l-117 -127q56 -115 56 -281q0 -106 -23.5 -193t-73 -157.5t-136 -110t-204.5 -39.5q-161 0 -266 78l-110 -119zM281 473q0 -78 14 -133l391 424 q-55 55 -156 55q-128 0 -188.5 -86t-60.5 -260zM375 172q58 -55 155 -55q130 0 189 90t59 266q0 79 -10 125z" />
<glyph unicode="&#xf9;" horiz-adv-x="1028" d="M139 346v590h183v-592q0 -51 5.5 -86t21.5 -70t52 -53t91 -18q131 0 215 186v633h182v-737q0 -45 10 -111.5t12 -87.5h-166l-32 131q-3 -4 -21 -26t-29 -34.5t-35 -33.5t-45.5 -33t-53 -21.5t-64.5 -9.5q-91 0 -156 27.5t-101.5 79t-52.5 116.5t-16 150zM270 1325h193 l196 -240h-135z" />
<glyph unicode="&#xfa;" horiz-adv-x="1028" d="M139 346v590h183v-592q0 -51 5.5 -86t21.5 -70t52 -53t91 -18q131 0 215 186v633h182v-737q0 -45 10 -111.5t12 -87.5h-166l-32 131q-3 -4 -21 -26t-29 -34.5t-35 -33.5t-45.5 -33t-53 -21.5t-64.5 -9.5q-91 0 -156 27.5t-101.5 79t-52.5 116.5t-16 150zM346 1085 l197 240h192l-256 -240h-133z" />
<glyph unicode="&#xfb;" horiz-adv-x="1028" d="M139 346v590h183v-592q0 -51 5.5 -86t21.5 -70t52 -53t91 -18q131 0 215 186v633h182v-737q0 -45 10 -111.5t12 -87.5h-166l-32 131q-3 -4 -21 -26t-29 -34.5t-35 -33.5t-45.5 -33t-53 -21.5t-64.5 -9.5q-91 0 -156 27.5t-101.5 79t-52.5 116.5t-16 150zM252 1092 l192 233h140l188 -233h-141l-117 139l-123 -139h-139z" />
<glyph unicode="&#xfc;" horiz-adv-x="1028" d="M139 346v590h183v-592q0 -51 5.5 -86t21.5 -70t52 -53t91 -18q131 0 215 186v633h182v-737q0 -45 10 -111.5t12 -87.5h-166l-32 131q-3 -4 -21 -26t-29 -34.5t-35 -33.5t-45.5 -33t-53 -21.5t-64.5 -9.5q-91 0 -156 27.5t-101.5 79t-52.5 116.5t-16 150zM268 1114v170 h172v-170h-172zM586 1114v170h159l13 -170h-172z" />
<glyph unicode="&#xfd;" horiz-adv-x="1040" d="M78 936h196l269 -686l231 686h189l-392 -1086q-43 -120 -115 -193.5t-206 -121.5l-60 154q147 40 181 133l82 217zM338 1085l197 240h192l-256 -240h-133z" />
<glyph unicode="&#xfe;" horiz-adv-x="1046" d="M117 -365q9 75 15.5 302t6.5 350v1059h183v-541q106 156 251 156q101 0 176.5 -39t119 -108t64.5 -154.5t21 -186.5q0 -103 -25 -191.5t-73.5 -157.5t-128 -109t-180.5 -40q-78 0 -138 38.5t-94 88.5l-32 -467h-166zM317 254q29 -64 84 -100.5t121 -36.5q244 0 244 352 q0 350 -217 350q-45 0 -83 -17.5t-67 -51t-46 -59t-36 -62.5v-375z" />
<glyph unicode="&#xff;" horiz-adv-x="1040" d="M78 936h196l269 -686l231 686h189l-392 -1086q-43 -120 -115 -193.5t-206 -121.5l-60 154q147 40 181 133l82 217zM295 1120v170h172v-170h-172zM612 1120v170h172v-170h-172z" />
<glyph unicode="&#x152;" horiz-adv-x="1998" d="M125 657q0 121 19.5 222.5t64.5 190t113.5 149.5t170.5 96t232 35q107 0 199 -25h886v-158h-651q114 -127 131 -403h477v-158h-475q-7 -294 -131 -448h668v-158h-873q-101 -37 -233 -37q-135 0 -238.5 35t-170.5 95.5t-110 149.5t-61 190t-18 224zM336 657 q0 -275 90 -405.5t297 -130.5q84 0 146 24t103 68t66 111.5t35 148t10 184.5q0 275 -80.5 405t-279.5 130q-204 0 -295.5 -133t-91.5 -402z" />
<glyph unicode="&#x153;" horiz-adv-x="1703" d="M92 473q0 80 14 150t47 133.5t82.5 108.5t125 71.5t169.5 26.5q240 0 342 -170q100 168 314 168q98 0 171 -25t121 -71t77 -117t41 -155.5t12 -195.5h-643q20 -284 247 -284q125 0 285 80l59 -144q-161 -74 -360 -74q-218 0 -324 172q-105 -174 -342 -174 q-118 0 -205 39.5t-136.5 110t-73 157.5t-23.5 193zM281 473q0 -172 58.5 -264t190.5 -92q130 0 189 90t59 266q0 177 -57.5 261.5t-190.5 84.5q-128 0 -188.5 -86t-60.5 -260zM963 535h462q-4 148 -63 216t-174 68q-91 0 -154.5 -70t-70.5 -214z" />
<glyph unicode="&#x178;" horiz-adv-x="1208" d="M31 1325h231l354 -553l345 553h217l-467 -729v-596h-205v588zM381 1470v172h170v-172h-170zM694 1470v172h168v-172h-168z" />
<glyph unicode="&#x2c6;" horiz-adv-x="466" d="M-27 1092l193 233h139l189 -233h-142l-116 139l-123 -139h-140z" />
<glyph unicode="&#x2dc;" horiz-adv-x="466" d="M-70 1128q36 82 82 113t125 31q42 0 104.5 -42t90.5 -42q36 0 62.5 28t35.5 60l107 -47q-22 -68 -76.5 -110t-124.5 -42q-39 0 -76 21.5t-68.5 43t-56.5 21.5q-39 0 -64.5 -24.5t-35.5 -59.5z" />
<glyph unicode="&#x2000;" horiz-adv-x="855" />
<glyph unicode="&#x2001;" horiz-adv-x="1710" />
<glyph unicode="&#x2002;" horiz-adv-x="855" />
<glyph unicode="&#x2003;" horiz-adv-x="1710" />
<glyph unicode="&#x2004;" horiz-adv-x="570" />
<glyph unicode="&#x2005;" horiz-adv-x="427" />
<glyph unicode="&#x2006;" horiz-adv-x="285" />
<glyph unicode="&#x2007;" horiz-adv-x="285" />
<glyph unicode="&#x2008;" horiz-adv-x="213" />
<glyph unicode="&#x2009;" horiz-adv-x="342" />
<glyph unicode="&#x200a;" horiz-adv-x="95" />
<glyph unicode="&#x2010;" horiz-adv-x="692" d="M57 401v156h578v-156h-578z" />
<glyph unicode="&#x2011;" horiz-adv-x="692" d="M57 401v156h578v-156h-578z" />
<glyph unicode="&#x2012;" horiz-adv-x="692" d="M57 401v156h578v-156h-578z" />
<glyph unicode="&#x2013;" horiz-adv-x="1024" d="M-2 416v147h1028v-147h-1028z" />
<glyph unicode="&#x2014;" horiz-adv-x="2048" d="M-2 403v160h2052v-160h-2052z" />
<glyph unicode="&#x2018;" horiz-adv-x="526" d="M92 942l203 385h129l-174 -385h-158z" />
<glyph unicode="&#x2019;" horiz-adv-x="526" d="M96 942l172 385h158l-199 -385h-131z" />
<glyph unicode="&#x201a;" horiz-adv-x="526" d="M96 -180l172 385h158l-199 -385h-131z" />
<glyph unicode="&#x201c;" horiz-adv-x="792" d="M82 942l203 385h129l-174 -385h-158zM379 942l201 385h131l-174 -385h-158z" />
<glyph unicode="&#x201d;" horiz-adv-x="792" d="M82 942l174 385h158l-201 -385h-131zM377 942l174 385h160l-203 -385h-131z" />
<glyph unicode="&#x201e;" horiz-adv-x="792" d="M82 -180l174 385h158l-201 -385h-131zM377 -180l174 385h160l-203 -385h-131z" />
<glyph unicode="&#x2022;" d="M250 664q0 117 80 196.5t196 79.5q117 0 197 -79.5t80 -196.5q0 -116 -80.5 -197.5t-196.5 -81.5q-118 0 -197 80t-79 199z" />
<glyph unicode="&#x2026;" horiz-adv-x="1576" d="M162 0v197h203v-197h-203zM688 0v197h203v-197h-203zM1214 0v197h201v-197h-201z" />
<glyph unicode="&#x202f;" horiz-adv-x="342" />
<glyph unicode="&#x2039;" horiz-adv-x="526" d="M86 553l190 373h173l-199 -369l196 -369h-170z" />
<glyph unicode="&#x203a;" horiz-adv-x="526" d="M92 926h172l191 -373l-191 -365h-170l197 369z" />
<glyph unicode="&#x205f;" horiz-adv-x="427" />
<glyph unicode="&#x2122;" horiz-adv-x="1871" d="M154 1233v92h575v-92h-225v-637h-125v637h-225zM827 596v729h199l231 -571l234 571h188v-729h-120v606l-248 -606h-117l-248 606v-606h-119z" />
<glyph unicode="&#x25fc;" horiz-adv-x="931" d="M0 0v932h932v-932h-932z" />
<glyph unicode="&#xfb01;" horiz-adv-x="1011" d="M27 795v141h141v63q0 72 23 131.5t58 97t84.5 66.5t93 43.5t93.5 24.5l62 -154q-122 -22 -177 -63.5t-55 -130.5v-78h172v-141h-172v-795h-182v795h-141zM682 1145v180h195v-180h-195zM688 0v936h182v-936h-182z" />
<glyph unicode="&#xfb02;" horiz-adv-x="1011" d="M27 795v141h141v63q0 72 23 131.5t58 97t84.5 66.5t93 43.5t93.5 24.5l62 -154q-122 -22 -177 -63.5t-55 -130.5v-78h172v-141h-172v-795h-182v795h-141zM692 0v1346h182v-1346h-182z" />
</font>
</defs>
</svg>
