<?xml version="1.0" standalone="no"?>
<!DOCTYPE svg PUBLIC "-//W3C//DTD SVG 1.1//EN" "http://www.w3.org/Graphics/SVG/1.1/DTD/svg11.dtd" >
<svg xmlns="http://www.w3.org/2000/svg">
<metadata></metadata>
<defs>
<font id="colaborate-mediumregular" horiz-adv-x="1105" >
<font-face units-per-em="2048" ascent="1638" descent="-410" />
<missing-glyph horiz-adv-x="552" />
<glyph horiz-adv-x="0" />
<glyph horiz-adv-x="682" />
<glyph unicode=" "  horiz-adv-x="552" />
<glyph unicode="&#x09;" horiz-adv-x="552" />
<glyph unicode="&#xa0;" horiz-adv-x="552" />
<glyph unicode="!" horiz-adv-x="552" d="M154 0v225h245v-225h-245zM162 373v952h229v-952h-229z" />
<glyph unicode="&#x22;" horiz-adv-x="819" d="M154 1325h204l-16 -444h-172zM463 1325h203l-17 -444h-170z" />
<glyph unicode="#" d="M33 350v162h215l49 285h-184v161h215l63 367h193l-64 -367h166l64 367h192l-63 -367h194v-161h-225l-49 -285h194v-162h-223l-61 -350h-193l62 350h-166l-62 -350h-192l61 350h-186zM440 512h166l49 285h-166z" />
<glyph unicode="$" d="M78 987q0 81 29.5 146t82 107.5t118 69t143.5 36.5v182h180v-178q173 -11 303 -56l-80 -217q-130 60 -223 72v-379q62 -23 105.5 -44t95.5 -57.5t83.5 -78t53.5 -105.5t22 -141q0 -92 -26.5 -160t-76.5 -110.5t-112.5 -67t-144.5 -35.5v-172h-180v162q-143 2 -365 64 l80 217q11 -4 53.5 -20.5t60.5 -23t52 -17t62 -15.5t57 -6v424q-50 20 -78 31.5t-73 34.5t-71.5 42.5t-59 51t-49.5 65t-29.5 79.5t-12.5 99zM332 987q0 -49 31.5 -82t91.5 -63v299q-123 -34 -123 -154zM627 182q110 42 110 158q0 94 -110 162v-320z" />
<glyph unicode="%" horiz-adv-x="1699" d="M88 999q0 353 295 353q161 0 229 -89.5t68 -263.5q0 -176 -68.5 -271t-230.5 -95q-160 0 -226.5 94t-66.5 272zM254 999q0 -133 24 -190t103 -57q78 0 105.5 60.5t27.5 186.5t-26 180t-105 54q-41 0 -67.5 -17t-39.5 -51.5t-17.5 -72t-4.5 -93.5zM369 0l741 1288h201 l-744 -1288h-198zM1022 340q0 352 295 352q161 0 228 -89t67 -263q0 -177 -68 -272t-229 -95q-160 0 -226.5 94.5t-66.5 272.5zM1188 340q0 -53 2.5 -88t10 -68t21 -51.5t37 -29.5t56.5 -11q78 0 105.5 61t27.5 187t-26 179.5t-105 53.5q-33 0 -56.5 -12t-37.5 -31.5 t-22 -51t-10.5 -63t-2.5 -75.5z" />
<glyph unicode="&#x26;" d="M94 371q0 266 221 379q-1 1 -32 24.5t-41.5 33t-36.5 36.5t-37.5 48t-22 54t-10.5 68q0 72 21 132.5t64.5 109t117.5 75.5t172 27q179 0 277 -85.5t98 -250.5q0 -47 -23.5 -91.5t-57.5 -78t-85.5 -67t-94 -55t-96.5 -44.5q-106 -45 -151 -118t-45 -193q0 -43 10.5 -81.5 t33 -73.5t65.5 -56t102 -21q60 0 109 37t98 101v161h-181v164h410v-319q0 -55 17 -166t18 -121h-217l-33 92q-35 -49 -109.5 -87t-136.5 -38q-83 0 -154.5 20.5t-134 65t-99 126t-36.5 192.5zM367 1016q0 -24 7 -45.5t22 -41.5t25.5 -32t30.5 -30t25 -23q38 17 64 31.5 t54.5 36.5t43 50t14.5 62q0 158 -147 158q-72 0 -105.5 -45.5t-33.5 -120.5z" />
<glyph unicode="'" horiz-adv-x="552" d="M174 1325h205l-17 -444h-172z" />
<glyph unicode="(" horiz-adv-x="645" d="M111 520q0 184 23 321.5t64 240.5t119 243h211q-108 -199 -147 -371t-39 -434q0 -229 39.5 -397.5t157.5 -384.5h-211q-128 222 -172.5 385t-44.5 397z" />
<glyph unicode=")" horiz-adv-x="645" d="M111 -262q118 215 157 383.5t39 398.5q0 262 -39 434t-147 371h211q78 -141 119 -243.5t64.5 -240t23.5 -321.5q0 -234 -44.5 -397t-172.5 -385h-211z" />
<glyph unicode="*" horiz-adv-x="880" d="M20 971l48 145l303 -112l18 14l-14 313h143l-14 -319l16 -11l301 111l39 -143l-307 -74l-2 -18l201 -263l-119 -84l-174 271h-21l-180 -273l-119 90l203 259l-6 18z" />
<glyph unicode="+" d="M106 365v176h349v342h196v-342h348v-176h-348v-365h-196v365h-349z" />
<glyph unicode="," horiz-adv-x="552" d="M57 -211l97 365h245l-166 -365h-176z" />
<glyph unicode="-" horiz-adv-x="716" d="M55 365v192h607v-192h-607z" />
<glyph unicode="." horiz-adv-x="552" d="M154 0v225h245v-225h-245z" />
<glyph unicode="/" horiz-adv-x="614" d="M-8 -23l436 1369h195l-433 -1369h-198z" />
<glyph unicode="0" d="M78 631q0 153 25.5 268.5t80.5 200.5t147 128.5t220 43.5q111 0 193.5 -29t136.5 -81.5t87 -134t46.5 -177t13.5 -219.5q0 -125 -13 -223t-46.5 -183t-87 -141t-137 -87.5t-195.5 -31.5q-110 0 -192.5 31.5t-135.5 87t-85 140.5t-45 183t-13 224zM336 631q0 -83 2 -136.5 t9 -113.5t21 -96t37 -67.5t59 -45.5t85 -14q48 0 84.5 15.5t60.5 47t39.5 70.5t23 96.5t10.5 112.5t3 131q0 79 -2.5 133t-10 109t-22.5 89.5t-39 63t-60 41t-85 12.5q-42 0 -74.5 -12.5t-55 -33t-38.5 -55t-25 -69t-14 -84.5t-6.5 -92.5t-1.5 -101.5z" />
<glyph unicode="1" d="M233 997l320 246h250v-1245h-258v999l-234 -186z" />
<glyph unicode="2" d="M98 211q15 11 65 47t77.5 56t80.5 60t86.5 67t81.5 68.5t78.5 73t65 71t54 72.5t33 68t13.5 66q0 123 -54 172t-147 49q-68 0 -140.5 -23.5t-176.5 -78.5l-76 211q153 54 225 69t173 15q71 0 134 -11.5t123 -40.5t102.5 -74t68.5 -116.5t26 -163.5q0 -75 -39 -158.5 t-96.5 -154t-135.5 -143t-144 -123t-134 -96.5h574v-193h-846z" />
<glyph unicode="3" d="M82 18l76 211q46 -22 138 -46.5t181 -24.5q105 0 165 55t60 137q0 40 -9.5 71t-26 53t-44 37.5t-57 24.5t-72.5 14.5t-83.5 7t-96.5 1.5v189q67 0 108 1.5t87 7t72 17t49.5 31t33 49t9.5 70.5q0 157 -183 157q-117 0 -309 -94l-76 211q63 32 186.5 54t207.5 22 q213 0 322.5 -87t109.5 -259q0 -121 -80.5 -189.5t-200.5 -83.5q58 -9 109.5 -29.5t99 -55.5t75.5 -92t28 -130q0 -87 -30 -155.5t-77.5 -110.5t-113.5 -69t-131.5 -37.5t-137.5 -10.5q-235 0 -389 53z" />
<glyph unicode="4" d="M31 526l555 717h278v-719h197v-194h-197v-330h-254v330h-495zM240 524h370v480z" />
<glyph unicode="5" d="M96 14l76 211q71 -28 163.5 -47.5t164.5 -19.5q73 0 124 20t77 56.5t36.5 77.5t10.5 94q0 206 -187 206q-27 0 -50.5 -2.5t-46 -8.5t-37 -10t-35.5 -14.5t-29 -15t-29.5 -17.5t-26.5 -16l-166 64v651h809v-192h-555v-273q82 31 185 31q194 0 307.5 -103t113.5 -305 q0 -137 -69.5 -237.5t-182 -149.5t-251.5 -49q-252 0 -402 49z" />
<glyph unicode="6" d="M92 580q0 102 18.5 198.5t61 187.5t104 158.5t155.5 108.5t208 41q60 0 148 -11t149 -28l-76 -211q-114 57 -211 57q-69 0 -124 -23.5t-90 -62.5t-58.5 -92t-33 -108.5t-9.5 -116.5q26 52 77.5 88.5t96.5 49.5t82 13q211 0 316.5 -116t105.5 -336q0 -120 -62 -215.5 t-163.5 -146t-219.5 -50.5q-475 0 -475 615zM352 483q0 -99 15.5 -165t46 -100t67 -47t88.5 -13q80 0 132.5 55t52.5 164v12q0 31 -1.5 52t-6.5 53.5t-17 54.5t-31 44t-51.5 33t-75.5 11q-159 0 -219 -154z" />
<glyph unicode="7" d="M109 1051v190h782l80 -164l-441 -1077h-274l485 1051h-632z" />
<glyph unicode="8" d="M78 317q0 134 77.5 219.5t221.5 118.5q-1 1 -22 8.5t-29.5 11.5t-31 14.5t-35 18.5t-33.5 22.5t-33.5 28.5t-28 33.5t-23.5 40t-14 47t-6 54.5q0 162 111 251t327 89q231 0 334.5 -81.5t103.5 -256.5q0 -54 -20.5 -101t-51 -77t-68.5 -53.5t-69.5 -35t-58.5 -16.5 q150 -38 224.5 -118t74.5 -218q0 -352 -479 -352q-104 0 -185 17t-147.5 55.5t-102.5 109.5t-36 170zM330 324q0 -75 53 -121.5t166 -46.5q116 0 171.5 45t55.5 123q0 51 -17.5 91t-50 67.5t-68.5 46t-85 34.5q-53 -18 -87.5 -34.5t-69 -43.5t-51.5 -67t-17 -94zM371 926 q0 -39 16 -71t45.5 -53.5t56.5 -35t62 -25.5q197 65 197 185q0 76 -39.5 116.5t-149.5 40.5q-107 0 -147.5 -39.5t-40.5 -117.5z" />
<glyph unicode="9" d="M94 860q0 90 38 169t100 131.5t142.5 83t164.5 30.5q116 0 203 -36t138 -92.5t82 -140t41.5 -165t10.5 -181.5q0 -102 -18.5 -198.5t-61 -187.5t-104 -158.5t-155.5 -108.5t-208 -41q-60 0 -148 11t-149 28l76 211q114 -57 211 -57q69 0 124 23.5t90 62.5t58.5 92 t33 108.5t9.5 116.5q-26 -52 -77.5 -88.5t-96.5 -49.5t-82 -13q-211 0 -316.5 115t-105.5 335zM352 848q0 -37 1.5 -62.5t11.5 -63.5t28.5 -61.5t54.5 -41t87 -17.5q159 0 219 154q0 99 -15.5 165t-46 100t-67 47t-88.5 13q-79 0 -132 -56t-53 -165v-12z" />
<glyph unicode=":" horiz-adv-x="552" d="M154 0v225h245v-225h-245zM154 700v226h245v-226h-245z" />
<glyph unicode=";" horiz-adv-x="552" d="M57 -211l97 365h245l-166 -365h-176zM154 700v226h245v-226h-245z" />
<glyph unicode="&#x3c;" d="M92 377v246l922 305v-223l-690 -205l690 -201v-223z" />
<glyph unicode="=" d="M92 141v176h922v-176h-922zM92 496v176h922v-176h-922z" />
<glyph unicode="&#x3e;" d="M92 76v223l690 205l-690 201v223l922 -301v-246z" />
<glyph unicode="?" horiz-adv-x="942" d="M104 1284q67 24 177.5 43t183.5 19q42 0 77 -2.5t79 -11t78.5 -23t69.5 -40.5t58 -61t37.5 -87t14.5 -117q0 -57 -25 -107t-62.5 -84t-81.5 -70t-81.5 -65.5t-62.5 -69.5t-25 -84v-164h-230v175q0 57 17.5 104.5t46 81t62.5 62.5t68 53.5t62.5 48.5t46 54.5t17.5 64.5 q0 76 -36 109.5t-130 33.5q-60 0 -165.5 -22.5t-158.5 -49.5zM303 0v225h246v-225h-246z" />
<glyph unicode="@" horiz-adv-x="1843" d="M164 655q0 142 42.5 258.5t117 197t179 135.5t225.5 80.5t259 25.5q63 0 127.5 -8.5t133.5 -29t130.5 -51t117 -76.5t96 -103.5t64 -135.5t23.5 -168q0 -118 -37.5 -210.5t-99 -150t-149 -95t-179.5 -52t-198 -14.5q-233 0 -356 103t-123 298q0 82 24.5 151t74.5 123.5 t134.5 85t196.5 30.5q59 0 125.5 -10t97.5 -19v-313h41l63 -168l-313 -27v350q-17 10 -33 10q-25 0 -46.5 -3t-48.5 -16t-45 -34.5t-31 -62.5t-13 -97q0 -53 13.5 -94.5t37.5 -65.5t49.5 -40t58 -22.5t53 -8.5t44.5 -2q57 0 100 3t89.5 12t80 24.5t65 42t51 63t31 89 t11.5 118.5q0 93 -28 165t-72.5 114.5t-107.5 70t-123.5 37t-129.5 9.5q-47 0 -94 -4.5t-107.5 -18.5t-113 -36.5t-105 -62.5t-89.5 -93t-60 -131t-23 -173q0 -97 24 -176t61.5 -131.5t91.5 -92t106.5 -61t115 -35t108 -17t93.5 -3.5q179 0 437 66l79 -191 q-240 -53 -522 -53q-181 0 -330 42.5t-260.5 126t-173 217.5t-61.5 308z" />
<glyph unicode="A" horiz-adv-x="1394" d="M59 0l539 1325h238l499 -1325h-284l-119 354h-473l-125 -354h-275zM530 549h336l-161 489z" />
<glyph unicode="B" horiz-adv-x="1280" d="M193 0v1325h469q78 0 142 -10.5t122 -36t97 -66t62 -104.5t23 -147q0 -101 -58 -170.5t-153 -96.5q128 -18 200 -95t72 -212q0 -387 -440 -387h-536zM451 199h266q84 0 136 43.5t52 144.5q0 197 -211 197h-243v-385zM451 780h239q70 0 113 46t43 132q0 75 -42.5 121.5 t-141.5 46.5h-211v-346z" />
<glyph unicode="C" horiz-adv-x="1177" d="M121 662q0 115 18.5 213.5t63.5 188t114.5 152t177 99.5t244.5 37q187 0 351 -54l-80 -217q-53 23 -88.5 36t-86 24.5t-96.5 11.5q-188 0 -270 -124t-82 -365q0 -254 78.5 -379t261.5 -125q23 0 44.5 2t45.5 7.5t39 9t42.5 13.5t38.5 14.5l44 18t43 17.5l80 -217 q-183 -64 -373 -64q-610 0 -610 701z" />
<glyph unicode="D" horiz-adv-x="1378" d="M193 0v1325h432q164 0 280 -35t196 -112.5t118 -203t38 -306.5q0 -243 -68 -390t-205 -212.5t-359 -65.5h-432zM451 199h192q83 0 142 19t108 68.5t73.5 144t24.5 235.5q0 122 -19.5 208t-50 134.5t-81 75.5t-98.5 34.5t-117 7.5h-174v-927z" />
<glyph unicode="E" horiz-adv-x="1189" d="M193 0v1325h786v-199h-528v-342h485v-198h-485v-387h546v-199h-804z" />
<glyph unicode="F" horiz-adv-x="1085" d="M193 0v1325h786v-201h-528v-348h503v-196h-503v-580h-258z" />
<glyph unicode="G" horiz-adv-x="1298" d="M121 664q0 156 36.5 280t111 216.5t196.5 142t285 49.5q130 0 333 -54l-79 -217q-56 25 -84 36t-77 23.5t-91 12.5q-85 0 -148.5 -23t-114 -76.5t-76.5 -151t-26 -238.5q0 -125 16.5 -214.5t56 -156.5t108.5 -100t169 -33q70 0 116.5 11.5t94.5 39.5v299h-293v199h523 v-629q-109 -64 -206.5 -91.5t-240.5 -27.5q-102 0 -187 20.5t-147 56t-110.5 87.5t-79 111.5t-50.5 131.5t-28 144t-8 152z" />
<glyph unicode="H" horiz-adv-x="1417" d="M193 0v1325h258v-541h516v541h258v-1325h-258v584h-516v-584h-258z" />
<glyph unicode="I" horiz-adv-x="593" d="M168 0v1325h258v-1325h-258z" />
<glyph unicode="J" horiz-adv-x="907" d="M29 0q16 3 49 9q143 27 207 58q153 76 170 275q2 27 2 55v928h258v-907q0 -74 -13 -138.5t-33 -114.5t-54.5 -95t-66.5 -76.5t-82 -61.5t-87 -48.5t-95 -38.5t-93.5 -31t-94.5 -27z" />
<glyph unicode="K" horiz-adv-x="1349" d="M193 0v1325h258v-559l489 559h291l-541 -623l631 -702h-334l-536 604v-604h-258z" />
<glyph unicode="L" horiz-adv-x="1013" d="M193 0v1325h258v-1120h550v-205h-808z" />
<glyph unicode="M" horiz-adv-x="1894" d="M193 0v1325h423l336 -979l344 979h406v-1325h-254v1051l-373 -1051h-264l-373 1051v-1051h-245z" />
<glyph unicode="N" horiz-adv-x="1488" d="M193 0v1325h382l467 -1020v1020h254v-1325h-387l-471 1020v-1020h-245z" />
<glyph unicode="O" horiz-adv-x="1484" d="M121 657q0 120 20.5 222t67.5 190.5t118 150t178 97t243 35.5q616 0 616 -695q0 -122 -20 -224t-65.5 -190.5t-116 -150t-176.5 -96.5t-241 -35q-140 0 -248 35t-178 95.5t-115 149.5t-64 190.5t-19 225.5zM387 657q0 -269 85 -383t273 -114q187 0 270 122t83 375 q0 261 -85.5 378.5t-267.5 117.5q-184 0 -271 -118.5t-87 -377.5z" />
<glyph unicode="P" horiz-adv-x="1228" d="M193 0v1325h464q106 0 188 -20t147 -64.5t99.5 -123.5t34.5 -189q0 -410 -446 -410h-229v-518h-258zM451 717h213q200 0 200 211q0 53 -12.5 90.5t-31 58t-49 32t-56 14.5t-62.5 3h-202v-409z" />
<glyph unicode="Q" horiz-adv-x="1484" d="M121 657q0 121 20 222.5t66.5 190t117.5 150t178.5 97t244.5 35.5q616 0 616 -695q0 -122 -20 -224t-65.5 -190.5t-116 -150t-176.5 -96.5t-241 -35q-140 0 -248 35t-178 95.5t-115 149.5t-64 190.5t-19 225.5zM387 657q0 -269 85 -383t273 -114q187 0 270 122t83 375 q0 261 -85.5 378.5t-267.5 117.5q-184 0 -271 -118.5t-87 -377.5zM662 -231l88 143l462 -43l-88 -170z" />
<glyph unicode="R" horiz-adv-x="1314" d="M193 0v1325h495q69 0 128.5 -9.5t120 -35.5t103.5 -67.5t70 -111t27 -159.5q0 -70 -17 -130t-53.5 -113t-102 -89.5t-155.5 -50.5l418 -559h-316l-403 551h-57v-551h-258zM451 750h249q86 0 130 52.5t44 139.5q0 86 -44 135t-132 49h-247v-376z" />
<glyph unicode="S" horiz-adv-x="1216" d="M131 25l80 217q76 -29 107.5 -40t96.5 -26.5t115 -15.5q53 0 93.5 4t77.5 16t60.5 32t37.5 52t14 76q0 38 -16 69.5t-40.5 54t-65.5 44t-77 36t-89 34.5q-25 9 -38 14q-52 20 -88.5 36.5t-81.5 42t-75 55t-57 67t-40.5 87t-13.5 107.5q0 94 45.5 167t121 114.5 t163.5 62.5t184 21q75 0 186 -16t187 -42l-80 -217q-55 24 -86 36t-92.5 26t-120.5 14q-132 0 -189 -48.5t-57 -117.5q0 -36 17 -64t58.5 -51.5t72 -36t96.5 -36.5q15 -5 22 -8q51 -18 83.5 -31t81 -36.5t79.5 -45.5t67 -57t56.5 -73.5t34.5 -90.5t14 -113q0 -92 -31.5 -162 t-82 -111t-124.5 -66.5t-147 -34.5t-162 -9q-164 0 -397 64z" />
<glyph unicode="T" horiz-adv-x="1077" d="M45 1124v201h987v-201h-364v-1124h-258v1124h-365z" />
<glyph unicode="U" horiz-adv-x="1480" d="M193 489v836h258v-815q0 -87 16 -150.5t42.5 -101.5t67 -60.5t82 -30t95.5 -7.5q276 0 276 350v815h258v-840q0 -261 -137 -392.5t-397 -131.5q-284 0 -422.5 131t-138.5 397z" />
<glyph unicode="V" horiz-adv-x="1335" d="M57 1325h285l340 -1008l322 1008h274l-483 -1325h-238z" />
<glyph unicode="W" horiz-adv-x="1980" d="M70 1325h272l221 -1012l291 957h320l241 -957l244 1012h252l-340 -1325h-320l-258 926l-303 -926h-319z" />
<glyph unicode="X" horiz-adv-x="1294" d="M61 0l443 684l-389 641h297l243 -416l260 416h277l-406 -631l435 -694h-306l-274 479l-303 -479h-277z" />
<glyph unicode="Y" horiz-adv-x="1267" d="M29 1325h293l321 -508l318 508h278l-477 -729v-596h-258v588z" />
<glyph unicode="Z" horiz-adv-x="1148" d="M88 209l694 915h-618v201h829l68 -209l-692 -915h675v-201h-888z" />
<glyph unicode="[" horiz-adv-x="624" d="M170 -260v1644h358v-163h-161v-1311h161v-170h-358z" />
<glyph unicode="\" horiz-adv-x="614" d="M-8 1346h194l437 -1369h-199z" />
<glyph unicode="]" horiz-adv-x="624" d="M117 -90h162v1311h-162v163h358v-1644h-358v170z" />
<glyph unicode="^" d="M66 551l370 774h226l378 -774h-215l-274 598l-277 -598h-208z" />
<glyph unicode="_" horiz-adv-x="1024" d="M-2 -61h1028v-177h-1028v177z" />
<glyph unicode="`" horiz-adv-x="505" d="M39 1325h231l197 -240h-160z" />
<glyph unicode="a" horiz-adv-x="1069" d="M88 246q0 342 514 342h78v45q0 25 -2.5 44t-10.5 40t-22 35t-39 23t-59 9q-170 0 -342 -82l-80 191q194 70 434 70q162 0 258 -75.5t96 -223.5v-377q0 -43 17 -150t20 -137h-219l-35 94q-126 -121 -243 -121q-178 0 -271.5 69.5t-93.5 203.5zM330 256q0 -104 166 -104 q116 0 186 96v184h-51q-161 0 -231 -44t-70 -132z" />
<glyph unicode="b" horiz-adv-x="1087" d="M111 0q2 15 6.5 50.5t6 48t4.5 40.5t4 46.5t2 45.5t1 56v1059h232v-533q107 150 245 150q102 0 178.5 -39.5t121 -108.5t66 -155t21.5 -187q0 -138 -45 -249t-142 -181t-232 -70q-78 0 -135 37.5t-85 83.5l-36 -94h-213zM362 283q61 -131 181 -131q219 0 219 317 q0 92 -15 156t-43 97.5t-60.5 47.5t-74.5 14q-36 0 -67 -14.5t-57 -43.5t-43.5 -55.5t-39.5 -66.5v-321z" />
<glyph unicode="c" horiz-adv-x="950" d="M88 461q0 234 118.5 368t350.5 134q59 0 159 -22t156 -44l-79 -190q-154 77 -238 77q-120 0 -174.5 -73.5t-54.5 -249.5q0 -309 227 -309q45 0 115 22.5t133 54.5l80 -190q-51 -25 -161 -45.5t-169 -20.5q-224 0 -343.5 133t-119.5 355z" />
<glyph unicode="d" horiz-adv-x="1087" d="M88 473q0 100 23.5 186.5t69 155.5t121.5 108.5t173 39.5q139 0 246 -150v533h231v-1059q0 -34 1 -63t4 -59.5t5 -48t7.5 -57.5t7.5 -59h-213l-37 94q-28 -46 -84.5 -83.5t-134.5 -37.5q-91 0 -163.5 26.5t-120 72t-78.5 110t-44.5 136.5t-13.5 155zM326 469 q0 -178 53.5 -247.5t165.5 -69.5q119 0 180 131v321q-22 40 -39.5 66.5t-43.5 55.5t-57 43.5t-67 14.5q-42 0 -74.5 -14t-60 -47.5t-42.5 -97.5t-15 -156z" />
<glyph unicode="e" horiz-adv-x="1067" d="M88 459q0 70 12.5 136.5t44.5 134.5t80.5 118.5t127.5 82.5t179 32q239 0 341 -141.5t102 -442.5h-643q14 -113 71.5 -173.5t153.5 -60.5q133 0 293 80l76 -178q-164 -74 -385 -74q-110 0 -198 39t-143 106.5t-83.5 154.5t-28.5 186zM332 545h420q-13 239 -222 239 q-32 0 -62.5 -10.5t-61.5 -35t-51 -74.5t-23 -119z" />
<glyph unicode="f" horiz-adv-x="684" d="M23 758v178h141v27q0 83 30 152t77.5 115t109.5 79.5t123.5 50.5t122.5 22l57 -190q-145 -14 -217 -63t-72 -148v-45h213v-178h-213v-758h-231v758h-141z" />
<glyph unicode="g" horiz-adv-x="1116" d="M78 -147q0 119 151 178q-118 53 -118 174q0 83 108 164q-17 21 -26.5 34.5t-28.5 46.5t-29 73.5t-10 84.5q0 39 8 79.5t35.5 92t71.5 90.5t124 66t185 27q61 0 158 -19q279 22 352 25l-60 -156h-114q35 -35 64.5 -91.5t29.5 -115.5q0 -51 -12 -99t-43 -96t-78 -83.5 t-122.5 -57.5t-170.5 -22q-36 0 -104 10t-101 25q-43 -22 -43 -68q0 -26 22 -40t81 -24.5t178 -19.5q138 -11 228.5 -32.5t140.5 -57t69.5 -78.5t19.5 -104q0 -74 -41 -128.5t-111 -84.5t-151.5 -44t-175.5 -14q-137 0 -233 18.5t-151 55t-79 83t-24 108.5zM315 -139 q0 -48 74 -75.5t176 -27.5q138 0 190 22t52 79q0 13 -11.5 24.5t-41 23.5t-76 21t-122 16t-173.5 9q-68 -32 -68 -92zM362 604q0 -94 52.5 -138t140.5 -44q51 0 89 17t58 45.5t29.5 60.5t9.5 67q0 84 -47.5 130t-140.5 46q-38 0 -70 -8.5t-60.5 -28.5t-44.5 -57.5t-16 -89.5 z" />
<glyph unicode="h" horiz-adv-x="1083" d="M135 0v1346h232v-533q16 21 25 32.5t35.5 37.5t50 41t59.5 28t73 13q80 0 140 -19t97.5 -51t60.5 -80.5t31.5 -102.5t8.5 -122v-590h-231v600q0 42 -4 69t-17.5 57t-44.5 45t-80 15q-114 0 -204 -176v-610h-232z" />
<glyph unicode="i" horiz-adv-x="505" d="M131 1124v201h244v-201h-244zM137 0v936h232v-936h-232z" />
<glyph unicode="j" horiz-adv-x="499" d="M-61 -211q107 23 148.5 68.5t41.5 136.5v942h231v-924q0 -87 -26 -155.5t-75.5 -117t-107 -81t-133.5 -59.5zM121 1124v201h248v-201h-248z" />
<glyph unicode="k" horiz-adv-x="997" d="M135 0v1346h232v-779l307 369h250l-340 -406l389 -530h-266l-340 469v-469h-232z" />
<glyph unicode="l" horiz-adv-x="501" d="M135 0v1346h232v-1346h-232z" />
<glyph unicode="m" horiz-adv-x="1658" d="M111 936h213l36 -125q36 51 105 102.5t143 51.5q80 0 132.5 -16t88 -46.5t78.5 -89.5q42 68 116 110t171 42q166 0 248 -90t82 -277v-598h-232v594q0 104 -31 148t-102 44q-77 0 -133.5 -53.5t-85.5 -132.5v-600h-231v594q0 113 -32.5 152.5t-111.5 39.5 q-63 0 -116 -56.5t-82 -117.5v-612h-232v721q0 45 -11 119.5t-13 95.5z" />
<glyph unicode="n" horiz-adv-x="1083" d="M111 936h213l36 -123q3 3 22.5 24.5t31 33.5t36.5 32.5t46.5 32t52 20.5t61.5 9q80 0 140 -19t97.5 -51t60.5 -80.5t31.5 -102.5t8.5 -122v-590h-231v600q0 42 -4 69t-17.5 57t-44.5 45t-80 15q-118 0 -204 -176v-610h-232v737q0 35 -4 68t-10.5 71t-9.5 60z" />
<glyph unicode="o" horiz-adv-x="1099" d="M88 473q0 80 15.5 151t51 134.5t88 108.5t131.5 71.5t177 26.5q124 0 215 -38t143.5 -106.5t77.5 -155t25 -192.5q0 -104 -25.5 -192t-78.5 -159t-144 -111t-213 -40q-123 0 -214.5 40t-144.5 110.5t-78.5 158.5t-25.5 193zM326 473q0 -323 225 -323q223 0 223 323 q0 170 -52.5 241.5t-170.5 71.5q-114 0 -169.5 -73t-55.5 -240z" />
<glyph unicode="p" horiz-adv-x="1087" d="M111 936h213l41 -123q109 152 233 152q86 0 154 -26.5t114 -72.5t76 -110.5t43.5 -137t13.5 -155.5q0 -100 -23.5 -187t-69 -156t-121.5 -109t-173 -40q-68 0 -137 33.5t-108 87.5v-461h-232v1018q0 29 -1 56t-2 45.5t-4 46.5t-4.5 40.5t-6 48t-6.5 50.5zM362 285 q75 -135 207 -135q89 0 141 70.5t52 246.5q0 178 -53.5 248.5t-165.5 70.5q-100 0 -181 -174v-327z" />
<glyph unicode="q" horiz-adv-x="1087" d="M88 463q0 103 24 192t71.5 159t126 110.5t179.5 40.5q78 0 140.5 -48.5t93.5 -103.5l41 123h213q-2 -19 -7.5 -59t-7.5 -57.5t-5 -48t-4 -59.5t-1 -63v-1018h-231v461q-39 -54 -108.5 -87.5t-137.5 -33.5q-84 0 -151 26.5t-110.5 71.5t-72.5 108.5t-41 134t-12 151.5z M326 467q0 -92 15 -156t42.5 -98t60 -48.5t74.5 -14.5q132 0 207 135v327q-81 174 -184 174q-111 0 -163 -70t-52 -249z" />
<glyph unicode="r" horiz-adv-x="798" d="M111 936h213l36 -160q35 62 101.5 125.5t132.5 63.5q93 0 178 -45l-80 -191q-74 57 -135 57q-20 0 -39 -8t-33.5 -19t-29.5 -30.5t-25 -34.5t-22 -39.5t-17 -36.5t-14 -34t-10 -25v-559h-232v727q0 41 -4.5 80t-11.5 78.5t-8 50.5z" />
<glyph unicode="s" horiz-adv-x="923" d="M78 37l80 190q20 -8 57 -22.5t57 -22t50 -16.5t58.5 -12.5t59.5 -3.5q51 0 85 8t50 24t21.5 32.5t5.5 39.5q0 21 -13 37.5t-43.5 31t-54 22.5t-71.5 22q-40 12 -64.5 20t-62.5 23.5t-62 31t-52.5 40.5t-44.5 53t-27 66.5t-11 84.5q0 81 34 138t94 86.5t125.5 42 t144.5 12.5q132 0 321 -60l-80 -190q-110 50 -149 60q-42 11 -90 11q-162 0 -162 -94q0 -18 10 -33t22.5 -25t39.5 -21t46 -17.5t56 -17.5q42 -13 65 -20.5t63.5 -24.5t64 -32t53.5 -40.5t46.5 -53t28 -66.5t11.5 -85q0 -79 -34.5 -136.5t-94 -88.5t-127.5 -45.5t-148 -14.5 t-180 19t-178 47z" />
<glyph unicode="t" horiz-adv-x="686" d="M27 758v180h155v250h232v-250h219v-180h-219v-531q0 -94 63.5 -145.5t190.5 -81.5l-62 -199q-88 22 -162.5 60.5t-134 93t-93.5 129.5t-34 162v512h-155z" />
<glyph unicode="u" horiz-adv-x="1069" d="M135 346v590h232v-600q0 -32 2 -54.5t10 -49.5t22.5 -43t41 -27.5t63.5 -11.5q65 0 111 47.5t85 128.5v610h232v-737q0 -35 4 -68t10.5 -71t9.5 -60h-213l-36 123q-4 -4 -26.5 -30.5t-39 -42t-44.5 -36.5t-61.5 -32t-70.5 -11q-76 0 -134 18.5t-95.5 51t-60.5 81 t-32.5 102.5t-9.5 122z" />
<glyph unicode="v" horiz-adv-x="1099" d="M74 936h248l235 -664l227 664h242l-362 -936h-228z" />
<glyph unicode="w" horiz-adv-x="1632" d="M61 936h246l207 -653l207 571h227l197 -571l188 653h238l-309 -936h-242l-193 573l-213 -573h-243z" />
<glyph unicode="x" horiz-adv-x="1011" d="M47 0l338 473l-315 463h260l184 -293l193 293h241l-319 -449l336 -487h-260l-201 311l-213 -311h-244z" />
<glyph unicode="y" horiz-adv-x="1085" d="M74 936h248l239 -637l209 637h242l-391 -1086q-46 -128 -129 -215t-228 -137l-78 191q147 40 181 133l82 217z" />
<glyph unicode="z" horiz-adv-x="909" d="M53 190l543 568h-477v178h657l80 -191l-537 -567h504v-178h-690z" />
<glyph unicode="{" horiz-adv-x="798" d="M98 455v178q49 2 80.5 26t46 63.5t21.5 90t13 106.5t16 112.5t34.5 107.5t63.5 91.5t109 66t165 28.5v-178q-62 0 -100 -26.5t-53.5 -71.5t-22.5 -100.5t-13.5 -116t-19.5 -115.5t-47.5 -102.5t-91.5 -73.5q58 -21 93.5 -66t48.5 -99.5t19 -115.5t12.5 -118t21.5 -103 t53 -74t100 -28v-179q-94 3 -163 27.5t-107.5 64.5t-62.5 91t-34 107t-16 112t-13.5 107.5t-22.5 92t-47 66t-83 29.5z" />
<glyph unicode="|" horiz-adv-x="552" d="M178 -340v1778h197v-1778h-197z" />
<glyph unicode="}" horiz-adv-x="798" d="M152 -63q62 0 100 28t53 74t21.5 103t12.5 118t19 115.5t48.5 99.5t93.5 66q-57 26 -91.5 73.5t-47.5 102.5t-19.5 115.5t-13.5 116t-22.5 100.5t-53.5 71.5t-100 26.5v178q95 -3 165 -28.5t109 -66t63.5 -91.5t34 -107.5t15.5 -112.5t13.5 -106.5t21.5 -90t45.5 -63.5 t80.5 -26v-178q-51 -4 -83 -29.5t-47 -66t-22.5 -92t-13.5 -107.5t-15.5 -112t-33.5 -107t-62.5 -91t-107.5 -64.5t-163 -27.5v179z" />
<glyph unicode="~" d="M59 420q0 108 74 182t205 74q57 0 112.5 -18.5t97.5 -45t76.5 -53t61 -45t39.5 -18.5q73 0 106 31.5t33 121.5l183 -98q0 -107 -75 -181.5t-208 -74.5q-51 0 -103.5 19t-93.5 46t-76.5 54t-64.5 46t-47 19q-72 0 -104.5 -33t-32.5 -124z" />
<glyph unicode="&#xa1;" horiz-adv-x="552" d="M154 1100v225h245v-225h-245zM162 0v952h229v-952h-229z" />
<glyph unicode="&#xa2;" horiz-adv-x="940" d="M88 461q0 206 92 335t273 158v193h186v-193q115 -17 223 -57l-80 -190q-69 37 -143 61v-602q65 19 152 63l79 -190q-62 -32 -231 -57v-187h-186v187q-178 29 -271.5 156.5t-93.5 322.5zM326 461q0 -230 127 -289v596q-65 -26 -96 -100t-31 -207z" />
<glyph unicode="&#xa3;" d="M90 612v179h154v12q0 95 18.5 172.5t49 133t79 99t98 71t116.5 48.5t125 31.5t132 19.5l68 -213q-160 -8 -220 -24q-131 -34 -177 -146q-31 -75 -31 -192v-12h309v-179h-309v-407h559v-205h-948v205h131v407h-154z" />
<glyph unicode="&#xa4;" d="M-2 428l63 199h142v88h-205l63 198h166q96 439 574 439q186 0 350 -54l-68 -211q-153 66 -282 66q-130 0 -203.5 -60.5t-103.5 -179.5h534l-63 -198h-496v-88h469l-64 -199h-387q26 -135 97 -201.5t204 -66.5q27 0 56.5 4.5t50.5 9t55.5 17t49.5 18t55 22t51 21.5v-242 q-142 -49 -313 -49q-489 0 -572 467h-223z" />
<glyph unicode="&#xa5;" d="M0 1325h287l274 -514l275 514h270l-381 -653h213v-176h-258v-105h258v-176h-258v-215h-258v215h-258v176h258v105h-258v176h211z" />
<glyph unicode="&#xa6;" horiz-adv-x="552" d="M178 -160v479h197v-479h-197zM178 735v479h197v-479h-197z" />
<glyph unicode="&#xa7;" horiz-adv-x="923" d="M72 682q0 151 114 213q-82 72 -82 178q0 81 34 138t94 86.5t125.5 42t144.5 12.5q118 0 301 -60l-80 -188q-13 6 -40.5 19.5t-42.5 20t-38.5 15t-47.5 12t-50 3.5q-162 0 -162 -95q0 -31 28 -53.5t73 -38t99.5 -31t109 -39.5t99.5 -56.5t73 -88t28 -129.5 q0 -133 -100 -207q59 -68 59 -184q0 -79 -33.5 -136.5t-92 -88.5t-126 -45.5t-147.5 -14.5q-144 0 -328 66l80 190q16 -7 56.5 -26t61.5 -27t58.5 -16.5t75.5 -8.5q97 0 127 27t30 78q0 32 -27.5 55t-72 37.5t-98 29.5t-106.5 37.5t-97.5 54.5t-72 87.5t-27.5 130.5z M305 684q0 -18 11.5 -34t28 -27t45.5 -23t52.5 -19.5t62.5 -19.5t62 -20q51 31 51 100q0 24 -13.5 45t-31 34.5t-54.5 29t-61.5 24t-74.5 23.5q-78 -26 -78 -113z" />
<glyph unicode="&#xa8;" horiz-adv-x="505" d="M-14 1135v190h209v-190h-209zM311 1135v190h209v-190h-209z" />
<glyph unicode="&#xa9;" horiz-adv-x="1474" d="M51 664q0 142 53.5 269t145.5 218t219 144t268 53q144 0 271 -52.5t218 -143t144 -217.5t53 -271q0 -142 -53.5 -269t-145.5 -218t-219 -144t-268 -53t-268 53t-219 144t-145.5 218t-53.5 269zM193 664q0 -112 43 -214.5t115 -177t173.5 -119t212.5 -44.5q149 0 274.5 75 t198 203t72.5 277q0 113 -42.5 215.5t-114.5 177t-173.5 118.5t-214.5 44q-152 0 -277 -74.5t-196 -201.5t-71 -279zM375 659q0 87 18.5 158.5t59.5 130.5t115.5 92t176.5 33q120 0 211 -31l-49 -131q-95 43 -162 43q-113 0 -161.5 -73.5t-48.5 -218.5q0 -153 47 -228.5 t157 -75.5q31 0 64.5 8.5t51.5 15.5t63 26l47 -132q-101 -36 -224 -36q-366 0 -366 419z" />
<glyph unicode="&#xaa;" d="M291 936q0 192 309 192h45v25q0 35 -15.5 53.5t-64.5 18.5q-110 0 -205 -45l-47 112q119 39 260 39q99 0 161.5 -41.5t62.5 -122.5v-209q0 -18 3.5 -43t9.5 -60t9 -54h-143l-21 53q-78 -68 -145 -68q-107 0 -163 38.5t-56 111.5zM440 942q0 -29 25 -39t70 -10 q67 0 112 57v78h-31q-98 0 -137 -19.5t-39 -66.5z" />
<glyph unicode="&#xab;" horiz-adv-x="839" d="M47 553l191 373h213l-199 -369l197 -369h-211zM391 553l191 373h213l-199 -369l197 -369h-211z" />
<glyph unicode="&#xac;" d="M61 537v176h973v-533h-196v357h-777z" />
<glyph unicode="&#xad;" horiz-adv-x="716" d="M55 365v192h607v-192h-607z" />
<glyph unicode="&#xae;" horiz-adv-x="1474" d="M51 664q0 142 53.5 269t145.5 218t219 144t268 53q144 0 271 -52.5t218 -143t144 -217.5t53 -271q0 -142 -53.5 -269t-145.5 -218t-219 -144t-268 -53t-268 53t-219 144t-145.5 218t-53.5 269zM193 664q0 -112 43 -214.5t115 -177t173.5 -119t212.5 -44.5q149 0 274.5 75 t198 203t72.5 277q0 113 -42.5 215.5t-114.5 177t-173.5 118.5t-214.5 44q-152 0 -277 -74.5t-196 -201.5t-71 -279zM451 264v799h297q52 0 96.5 -10.5t85.5 -35.5t64.5 -73t23.5 -115q0 -89 -46 -151t-151 -78l250 -336h-188l-244 332h-33v-332h-155zM606 715h150 q52 0 78 31t26 83q0 51 -27 81t-79 30h-148v-225z" />
<glyph unicode="&#xaf;" horiz-adv-x="505" d="M-12 1114v170h530v-170h-530z" />
<glyph unicode="&#xb0;" horiz-adv-x="880" d="M92 918q0 147 102.5 245.5t245.5 98.5t245.5 -98.5t102.5 -245.5q0 -146 -103 -242t-247 -96t-245 95.5t-101 242.5zM242 918q0 -81 58.5 -139t137.5 -58t139 58t60 139q0 89 -55.5 145.5t-141.5 56.5q-87 0 -142.5 -56.5t-55.5 -145.5z" />
<glyph unicode="&#xb1;" d="M92 0v176h922v-176h-922zM106 487v177h349v219h196v-219h348v-177h-348v-241h-196v241h-349z" />
<glyph unicode="&#xb2;" horiz-adv-x="747" d="M92 776q19 13 69 45t86 55.5t84 59t78 64.5t52 62.5t22 61.5q0 65 -33.5 87t-93.5 22q-79 0 -192 -55l-45 127q95 30 137 38.5t102 8.5q43 0 82.5 -6.5t78.5 -22.5t68 -40.5t46.5 -64.5t17.5 -90q0 -30 -14.5 -62t-33 -58t-55 -58.5t-60 -51.5t-69.5 -50t-62 -41.5 t-58 -36.5h354v-119h-518z" />
<glyph unicode="&#xb3;" horiz-adv-x="747" d="M100 662l45 126q25 -12 81.5 -25t111.5 -13q63 0 102 26.5t39 67.5q0 36 -16.5 58.5t-51.5 33.5t-73 14.5t-98 3.5v113q119 0 170 17t51 75q0 43 -29.5 58.5t-85.5 15.5q-74 0 -186 -51l-45 129q37 17 110.5 29t124.5 12q130 0 203.5 -49t73.5 -142q0 -66 -48.5 -103.5 t-121.5 -45.5q77 -11 132.5 -52.5t55.5 -117.5q0 -59 -29 -102t-77 -65t-98.5 -32t-106.5 -10q-143 0 -234 29z" />
<glyph unicode="&#xb4;" horiz-adv-x="505" d="M39 1085l197 240h231l-268 -240h-160z" />
<glyph unicode="&#xb6;" d="M82 928q0 49 7.5 96t32.5 104t66 98.5t114.5 70t170.5 28.5h584v-1710h-197v1532h-205q-98 0 -160.5 -64.5t-62.5 -181.5q0 -89 62.5 -159t138.5 -91v-1036h-197v913q-94 15 -165 56.5t-111 99t-59 119t-19 125.5z" />
<glyph unicode="&#xb7;" horiz-adv-x="552" d="M164 442v228h225v-228h-225z" />
<glyph unicode="&#xb8;" horiz-adv-x="505" d="M0 -424l49 160q140 -17 154 -17q98 0 98 76q0 28 -10.5 42.5t-46.5 23t-107 8.5l43 162h182l-20 -82q68 0 105.5 -48t37.5 -102q0 -77 -42 -133t-102 -81t-128 -25q-95 0 -213 16z" />
<glyph unicode="&#xb9;" horiz-adv-x="747" d="M160 1190l190 135h152v-684h-166v539l-129 -103z" />
<glyph unicode="&#xba;" d="M270 1081q0 117 71.5 194t213.5 77q146 0 215.5 -75t69.5 -196q0 -119 -71.5 -197.5t-213.5 -78.5q-144 0 -214.5 77t-70.5 199zM420 1081q0 -170 135 -170q133 0 133 170q0 90 -33 127t-100 37q-65 0 -100 -37.5t-35 -126.5z" />
<glyph unicode="&#xbb;" horiz-adv-x="839" d="M47 926h213l191 -373l-191 -365h-211l197 369zM391 926h213l191 -373l-191 -365h-211l197 369z" />
<glyph unicode="&#xbc;" horiz-adv-x="1699" d="M131 1190l191 135h167l-16 -684h-166v539l-129 -103zM291 0l741 1288h201l-744 -1288h-198zM868 295l334 389h178v-389h111v-119h-111v-176h-163v176h-297zM1006 295h211v244z" />
<glyph unicode="&#xbd;" horiz-adv-x="1699" d="M123 1190l190 135h166l-14 -684h-166v539l-129 -103zM281 0l757 1288h185l-744 -1288h-198zM995 125q19 13 69 45t86 55.5t84 59t78 64.5t52 62.5t22 61.5q0 65 -33 87t-93 22q-78 0 -193 -56l-45 127q94 30 137 38.5t103 8.5q55 0 103.5 -11t92.5 -35t70 -69.5 t26 -107.5q0 -30 -14.5 -62t-33 -58t-55 -58.5t-60 -51.5t-69.5 -50t-62 -41.5t-58 -36.5h354v-119h-518z" />
<glyph unicode="&#xbe;" horiz-adv-x="1699" d="M100 662l45 126q25 -12 81.5 -25t111.5 -13q63 0 102 26.5t39 67.5q0 36 -16.5 58.5t-51.5 33.5t-73 14.5t-98 3.5v113q119 0 170 17t51 75q0 43 -29.5 58.5t-85.5 15.5q-74 0 -186 -51l-45 129q37 17 110.5 29t124.5 12q130 0 203.5 -49t73.5 -142q0 -66 -48.5 -103.5 t-121.5 -45.5q77 -11 132.5 -52.5t55.5 -117.5q0 -59 -29 -102t-77 -65t-98.5 -32t-106.5 -10q-143 0 -234 29zM358 0l742 1288h200l-743 -1288h-199zM907 295l334 389h178v-389h111v-119h-111v-176h-164v176h-297zM1044 295h211v244z" />
<glyph unicode="&#xbf;" horiz-adv-x="942" d="M104 322q0 67 35 124t84.5 97t99 77.5t84.5 83.5t35 97v164h230v-174q0 -57 -17.5 -104.5t-46 -81t-62.5 -62.5t-68 -53.5t-62.5 -48.5t-46 -54.5t-17.5 -64.5q0 -76 36 -110t130 -34q60 0 165.5 22.5t158.5 49.5l37 -209q-66 -23 -177 -42t-184 -19q-42 0 -77 2.5 t-79 11t-78.5 23t-69.5 40.5t-58 61t-37.5 87t-14.5 117zM434 1100v225h246v-225h-246z" />
<glyph unicode="&#xc0;" horiz-adv-x="1394" d="M59 0l539 1325h238l499 -1325h-284l-119 354h-473l-125 -354h-275zM492 1657h231l197 -240h-160zM530 549h336l-161 489z" />
<glyph unicode="&#xc1;" horiz-adv-x="1394" d="M59 0l539 1325h238l499 -1325h-284l-119 354h-473l-125 -354h-275zM506 1417l199 240h229l-268 -240h-160zM530 549h336l-161 489z" />
<glyph unicode="&#xc2;" horiz-adv-x="1394" d="M59 0l539 1325h238l499 -1325h-284l-119 354h-473l-125 -354h-275zM430 1421l203 240h160l196 -240h-168l-108 131l-115 -131h-168zM530 549h336l-161 489z" />
<glyph unicode="&#xc3;" horiz-adv-x="1394" d="M59 0l539 1325h238l499 -1325h-284l-119 354h-473l-125 -354h-275zM389 1452q37 87 89 120.5t140 33.5q37 0 74 -23t69 -46.5t58 -23.5q39 0 67.5 30t37.5 63l123 -58q-24 -76 -86 -121t-138 -45q-37 0 -69.5 14.5t-51.5 32t-42 32t-44 14.5q-78 0 -104 -80zM530 549h336 l-161 489z" />
<glyph unicode="&#xc4;" horiz-adv-x="1394" d="M59 0l539 1325h238l499 -1325h-284l-119 354h-473l-125 -354h-275zM442 1384v191h209v-191h-209zM530 549h336l-161 489zM768 1384v191h209v-191h-209z" />
<glyph unicode="&#xc5;" horiz-adv-x="1394" d="M59 0l539 1325h238l499 -1325h-284l-119 354h-473l-125 -354h-275zM530 549h336l-161 489zM557 1542q0 70 49.5 119t120.5 49q72 0 121 -48t49 -120q0 -70 -49.5 -119t-120.5 -49q-69 0 -119.5 49.5t-50.5 118.5zM641 1544q0 -31 25 -58.5t61 -27.5q41 0 62.5 25t21.5 61 q0 37 -22.5 61.5t-61.5 24.5q-37 0 -61.5 -26t-24.5 -60z" />
<glyph unicode="&#xc6;" horiz-adv-x="2023" d="M59 0l752 1325h1001v-199h-684l56 -342h585v-198h-550l67 -387h545v-199h-766l-53 354h-467l-191 -354h-295zM649 549h334l-72 491z" />
<glyph unicode="&#xc7;" horiz-adv-x="1177" d="M121 662q0 115 18.5 214t63.5 188.5t114.5 152.5t177 100t244.5 37q181 0 351 -56l-80 -217q-57 24 -89.5 36.5t-84 25t-97.5 12.5q-188 0 -270 -125t-82 -366q0 -254 78.5 -380t261.5 -126q27 0 54.5 4t47 8t50 14.5t45 16t50.5 20.5t50 21l80 -217q-178 -63 -363 -66 l-2 -10q69 0 109.5 -48.5t40.5 -101.5q0 -77 -44 -133t-105.5 -81t-129.5 -25q-95 0 -213 16l49 162q140 -17 154 -17q98 0 98 74q0 42 -30 58t-133 16l28 106q-442 91 -442 687z" />
<glyph unicode="&#xc8;" horiz-adv-x="1189" d="M193 0v1325h786v-199h-528v-342h485v-198h-485v-387h546v-199h-804zM348 1657h232l196 -240h-160z" />
<glyph unicode="&#xc9;" horiz-adv-x="1189" d="M193 0v1325h786v-199h-528v-342h485v-198h-485v-387h546v-199h-804zM332 1386l196 240h232l-268 -240h-160z" />
<glyph unicode="&#xca;" horiz-adv-x="1189" d="M193 0v1325h786v-199h-528v-342h485v-198h-485v-387h546v-199h-804zM303 1417l203 240h160l196 -240h-168l-108 131l-115 -131h-168z" />
<glyph unicode="&#xcb;" horiz-adv-x="1189" d="M193 0v1325h786v-199h-528v-342h485v-198h-485v-387h546v-199h-804zM340 1384v191h209v-191h-209zM666 1384v191h208v-191h-208z" />
<glyph unicode="&#xcc;" horiz-adv-x="593" d="M31 1657h231l197 -240h-160zM168 0v1325h258v-1325h-258z" />
<glyph unicode="&#xcd;" horiz-adv-x="593" d="M94 1417l197 240h231l-268 -240h-160zM168 0v1325h258v-1325h-258z" />
<glyph unicode="&#xce;" horiz-adv-x="593" d="M18 1409l203 240h160l197 -240h-168l-109 131l-115 -131h-168zM168 0v1325h258v-1325h-258z" />
<glyph unicode="&#xcf;" horiz-adv-x="593" d="M35 1466v191h209v-191h-209zM168 0v1325h258v-1325h-258zM360 1466v191h209v-191h-209z" />
<glyph unicode="&#xd0;" horiz-adv-x="1378" d="M59 653v178h134v494h432q164 0 280 -35t196 -112.5t118 -203t38 -306.5q0 -243 -68 -390t-205 -212.5t-359 -65.5h-432v653h-134zM451 199h192q83 0 142 19t108 68.5t73.5 144t24.5 235.5q0 122 -19.5 208t-50 134.5t-81 75.5t-98.5 34.5t-117 7.5h-174v-295h206v-178 h-206v-454z" />
<glyph unicode="&#xd1;" horiz-adv-x="1488" d="M193 0v1325h382l467 -1020v1020h254v-1325h-387l-471 1020v-1020h-245zM416 1450q37 87 89 120.5t140 33.5q37 0 74 -23t69 -46.5t58 -23.5q38 0 66.5 30t37.5 63l123 -58q-25 -76 -86 -121t-137 -45q-37 0 -69.5 14.5t-51.5 32t-42 32t-44 14.5q-78 0 -104 -80z" />
<glyph unicode="&#xd2;" horiz-adv-x="1484" d="M121 657q0 120 20.5 222t67.5 190.5t118 150t178 97t243 35.5q616 0 616 -695q0 -122 -20 -224t-65.5 -190.5t-116 -150t-176.5 -96.5t-241 -35q-140 0 -248 35t-178 95.5t-115 149.5t-64 190.5t-19 225.5zM387 657q0 -269 85 -383t273 -114q187 0 270 122t83 375 q0 261 -85.5 378.5t-267.5 117.5q-184 0 -271 -118.5t-87 -377.5zM446 1657h232l196 -240h-159z" />
<glyph unicode="&#xd3;" horiz-adv-x="1484" d="M121 657q0 120 20.5 222t67.5 190.5t118 150t178 97t243 35.5q616 0 616 -695q0 -122 -20 -224t-65.5 -190.5t-116 -150t-176.5 -96.5t-241 -35q-140 0 -248 35t-178 95.5t-115 149.5t-64 190.5t-19 225.5zM387 657q0 -269 85 -383t273 -114q187 0 270 122t83 375 q0 261 -85.5 378.5t-267.5 117.5q-184 0 -271 -118.5t-87 -377.5zM543 1417l196 240h232l-269 -240h-159z" />
<glyph unicode="&#xd4;" horiz-adv-x="1484" d="M121 657q0 120 20.5 222t67.5 190.5t118 150t178 97t243 35.5q616 0 616 -695q0 -122 -20 -224t-65.5 -190.5t-116 -150t-176.5 -96.5t-241 -35q-140 0 -248 35t-178 95.5t-115 149.5t-64 190.5t-19 225.5zM387 657q0 -269 85 -383t273 -114q187 0 270 122t83 375 q0 261 -85.5 378.5t-267.5 117.5q-184 0 -271 -118.5t-87 -377.5zM459 1417l203 240h159l197 -240h-168l-109 131l-114 -131h-168z" />
<glyph unicode="&#xd5;" horiz-adv-x="1484" d="M121 657q0 120 20.5 222t67.5 190.5t118 150t178 97t243 35.5q616 0 616 -695q0 -122 -20 -224t-65.5 -190.5t-116 -150t-176.5 -96.5t-241 -35q-140 0 -248 35t-178 95.5t-115 149.5t-64 190.5t-19 225.5zM387 657q0 -269 85 -383t273 -114q187 0 270 122t83 375 q0 261 -85.5 378.5t-267.5 117.5q-184 0 -271 -118.5t-87 -377.5zM428 1452q37 87 89 120.5t140 33.5q37 0 74 -23t69 -46.5t58 -23.5q39 0 67.5 30t37.5 63l122 -58q-25 -76 -86 -121t-137 -45q-37 0 -69.5 14.5t-51.5 32t-42 32t-44 14.5q-78 0 -104 -80z" />
<glyph unicode="&#xd6;" horiz-adv-x="1484" d="M121 657q0 120 20.5 222t67.5 190.5t118 150t178 97t243 35.5q616 0 616 -695q0 -122 -20 -224t-65.5 -190.5t-116 -150t-176.5 -96.5t-241 -35q-140 0 -248 35t-178 95.5t-115 149.5t-64 190.5t-19 225.5zM387 657q0 -269 85 -383t273 -114q187 0 270 122t83 375 q0 261 -85.5 378.5t-267.5 117.5q-184 0 -271 -118.5t-87 -377.5zM479 1384v191h209v-191h-209zM805 1384v191h209v-191h-209z" />
<glyph unicode="&#xd7;" d="M92 193l324 323l-324 324l139 139l324 -324l324 324l139 -139l-324 -324l324 -323l-139 -140l-324 324l-324 -324z" />
<glyph unicode="&#xd8;" horiz-adv-x="1484" d="M33 -2l184 217q-96 163 -96 442q0 120 20.5 222t67.5 190.5t118 150t178 97t243 35.5q219 0 364 -90l152 178l168 -154l-162 -190q94 -162 94 -439q0 -122 -20 -224t-65.5 -190.5t-116 -150t-176.5 -96.5t-241 -35q-223 0 -368 90l-176 -207zM387 657q0 -124 19 -221 l557 651q-81 66 -218 66q-184 0 -271 -118.5t-87 -377.5zM522 221q78 -61 223 -61q187 0 270 122t83 375q0 118 -19 215z" />
<glyph unicode="&#xd9;" horiz-adv-x="1480" d="M193 489v836h258v-815q0 -87 16 -150.5t42.5 -101.5t67 -60.5t82 -30t95.5 -7.5q276 0 276 350v815h258v-840q0 -261 -137 -392.5t-397 -131.5q-284 0 -422.5 131t-138.5 397zM446 1657h232l196 -240h-159z" />
<glyph unicode="&#xda;" horiz-adv-x="1480" d="M193 489v836h258v-815q0 -87 16 -150.5t42.5 -101.5t67 -60.5t82 -30t95.5 -7.5q276 0 276 350v815h258v-840q0 -261 -137 -392.5t-397 -131.5q-284 0 -422.5 131t-138.5 397zM578 1386l196 240h232l-269 -240h-159z" />
<glyph unicode="&#xdb;" horiz-adv-x="1480" d="M193 489v836h258v-815q0 -87 16 -150.5t42.5 -101.5t67 -60.5t82 -30t95.5 -7.5q276 0 276 350v815h258v-840q0 -261 -137 -392.5t-397 -131.5q-284 0 -422.5 131t-138.5 397zM463 1417l203 240h159l197 -240h-168l-109 131l-114 -131h-168z" />
<glyph unicode="&#xdc;" horiz-adv-x="1480" d="M193 489v836h258v-815q0 -87 16 -150.5t42.5 -101.5t67 -60.5t82 -30t95.5 -7.5q276 0 276 350v815h258v-840q0 -261 -137 -392.5t-397 -131.5q-284 0 -422.5 131t-138.5 397zM485 1384v191h209v-191h-209zM811 1384v191h209v-191h-209z" />
<glyph unicode="&#xdd;" horiz-adv-x="1267" d="M29 1325h293l321 -508l318 508h278l-477 -729v-596h-258v588zM354 1417l197 240h231l-268 -240h-160z" />
<glyph unicode="&#xde;" horiz-adv-x="1228" d="M193 0v1325h258v-248h206q106 0 188 -20t147 -64.5t99.5 -123.5t34.5 -189q0 -410 -446 -410h-229v-270h-258zM451 469h213q200 0 200 211q0 53 -12.5 90.5t-31 58t-48.5 32.5t-56.5 15t-62.5 3h-202v-410z" />
<glyph unicode="&#xdf;" horiz-adv-x="1099" d="M135 0v965q0 189 96.5 285t270.5 96q56 0 106 -8t102.5 -30t89.5 -56.5t61 -93t24 -134.5q0 -55 -15.5 -103t-37.5 -79t-53.5 -59.5t-55.5 -43t-52.5 -30.5t-35.5 -21q12 -5 46.5 -17.5t58.5 -22t60.5 -28.5t62.5 -39t55 -52.5t47.5 -69.5t30.5 -89.5t12 -113.5 q0 -98 -35.5 -177t-93 -129.5t-136 -84.5t-160 -48t-169.5 -14l80 197q131 0 203.5 76t72.5 184q0 37 -6.5 70t-15.5 57.5t-26 47.5t-30.5 38t-38 30t-40 23t-43.5 18t-41 14t-41.5 12t-36.5 10v182q79 51 109 80q87 82 87 188q0 64 -42 100.5t-103 36.5q-135 0 -135 -180 v-987h-232z" />
<glyph unicode="&#xe0;" horiz-adv-x="1069" d="M88 246q0 342 514 342h78v45q0 25 -2.5 44t-10.5 40t-22 35t-39 23t-59 9q-170 0 -342 -82l-80 191q194 70 434 70q162 0 258 -75.5t96 -223.5v-377q0 -43 17 -150t20 -137h-219l-35 94q-126 -121 -243 -121q-178 0 -271.5 69.5t-93.5 203.5zM227 1325h232l196 -240h-159 zM330 256q0 -104 166 -104q116 0 186 96v184h-51q-161 0 -231 -44t-70 -132z" />
<glyph unicode="&#xe1;" horiz-adv-x="1069" d="M88 246q0 342 514 342h78v45q0 25 -2.5 44t-10.5 40t-22 35t-39 23t-59 9q-170 0 -342 -82l-80 191q194 70 434 70q162 0 258 -75.5t96 -223.5v-377q0 -43 17 -150t20 -137h-219l-35 94q-126 -121 -243 -121q-178 0 -271.5 69.5t-93.5 203.5zM317 1085l197 240h231 l-268 -240h-160zM330 256q0 -104 166 -104q116 0 186 96v184h-51q-161 0 -231 -44t-70 -132z" />
<glyph unicode="&#xe2;" horiz-adv-x="1069" d="M88 246q0 342 514 342h78v45q0 25 -2.5 44t-10.5 40t-22 35t-39 23t-59 9q-170 0 -342 -82l-80 191q194 70 434 70q162 0 258 -75.5t96 -223.5v-377q0 -43 17 -150t20 -137h-219l-35 94q-126 -121 -243 -121q-178 0 -271.5 69.5t-93.5 203.5zM217 1085l203 240h160 l196 -240h-168l-108 132l-115 -132h-168zM330 256q0 -104 166 -104q116 0 186 96v184h-51q-161 0 -231 -44t-70 -132z" />
<glyph unicode="&#xe3;" horiz-adv-x="1069" d="M88 246q0 342 514 342h78v45q0 25 -2.5 44t-10.5 40t-22 35t-39 23t-59 9q-170 0 -342 -82l-80 191q194 70 434 70q162 0 258 -75.5t96 -223.5v-377q0 -43 17 -150t20 -137h-219l-35 94q-126 -121 -243 -121q-178 0 -271.5 69.5t-93.5 203.5zM174 1120q37 87 89 120.5 t140 33.5q37 0 74 -23t69 -46t58 -23q20 0 40.5 11t30.5 20t31.5 33.5t24.5 27.5l100 -57q-25 -76 -86 -121t-137 -45q-47 0 -85 23t-67.5 46t-54.5 23q-78 0 -104 -80zM330 256q0 -104 166 -104q116 0 186 96v184h-51q-161 0 -231 -44t-70 -132z" />
<glyph unicode="&#xe4;" horiz-adv-x="1069" d="M88 246q0 342 514 342h78v45q0 25 -2.5 44t-10.5 40t-22 35t-39 23t-59 9q-170 0 -342 -82l-80 191q194 70 434 70q162 0 258 -75.5t96 -223.5v-377q0 -43 17 -150t20 -137h-219l-35 94q-126 -121 -243 -121q-178 0 -271.5 69.5t-93.5 203.5zM254 1081v203h211v-203h-211 zM330 256q0 -104 166 -104q116 0 186 96v184h-51q-161 0 -231 -44t-70 -132zM584 1081v203h211v-203h-211z" />
<glyph unicode="&#xe5;" horiz-adv-x="1069" d="M88 246q0 342 514 342h78v45q0 25 -2.5 44t-10.5 40t-22 35t-39 23t-59 9q-170 0 -342 -82l-80 191q194 70 434 70q162 0 258 -75.5t96 -223.5v-377q0 -43 17 -150t20 -137h-219l-35 94q-126 -121 -243 -121q-178 0 -271.5 69.5t-93.5 203.5zM330 256q0 -104 166 -104 q116 0 186 96v184h-51q-161 0 -231 -44t-70 -132zM340 1206q0 70 49.5 119t120.5 49q72 0 121 -48t49 -120q0 -70 -49.5 -119t-120.5 -49q-69 0 -119.5 49.5t-50.5 118.5zM424 1208q0 -31 25 -58.5t61 -27.5q41 0 62.5 25t21.5 61q0 37 -22.5 61.5t-61.5 24.5 q-37 0 -61.5 -26t-24.5 -60z" />
<glyph unicode="&#xe6;" horiz-adv-x="1648" d="M88 246q0 342 514 342h78v45q0 25 -2.5 44t-10.5 40t-22 35t-39 23t-59 9q-170 0 -342 -82l-80 191q194 70 434 70q171 0 275 -107q118 107 276 107q128 0 214.5 -36.5t137.5 -113t72.5 -182.5t21.5 -258h-643q13 -112 71 -170t155 -58q126 0 286 80l76 -178 q-164 -74 -379 -74q-124 0 -217 49.5t-125 120.5q-148 -170 -327 -170q-178 0 -271.5 69.5t-93.5 203.5zM330 256q0 -104 166 -104q102 0 186 116v152h-51q-163 0 -232 -39t-69 -125zM913 545h412q-7 128 -62 183.5t-151 55.5q-25 0 -49.5 -6t-51 -22.5t-47 -42t-35 -69 t-16.5 -99.5z" />
<glyph unicode="&#xe7;" horiz-adv-x="940" d="M88 461q0 234 118.5 368t350.5 134q59 0 153.5 -21.5t151.5 -44.5l-80 -190q-154 77 -227 77q-120 0 -174.5 -73.5t-54.5 -249.5q0 -309 227 -309q88 0 238 77l79 -190q-42 -21 -123.5 -39.5t-148.5 -24.5l-8 -30q69 0 106 -46t37 -100q0 -77 -41.5 -133t-101 -81 t-127.5 -25q-95 0 -213 16l49 154q140 -17 154 -17q42 0 73 20.5t31 61.5t-33.5 57.5t-136.5 16.5l31 119q-161 38 -245.5 163t-84.5 310z" />
<glyph unicode="&#xe8;" horiz-adv-x="1067" d="M88 459q0 70 12.5 136.5t44.5 134.5t80.5 118.5t127.5 82.5t179 32q239 0 341 -141.5t102 -442.5h-643q14 -113 71.5 -173.5t153.5 -60.5q133 0 293 80l76 -178q-164 -74 -385 -74q-110 0 -198 39t-143 106.5t-83.5 154.5t-28.5 186zM252 1325h231l197 -240h-160z M332 545h420q-13 239 -222 239q-32 0 -62.5 -10.5t-61.5 -35t-51 -74.5t-23 -119z" />
<glyph unicode="&#xe9;" horiz-adv-x="1067" d="M88 459q0 70 12.5 136.5t44.5 134.5t80.5 118.5t127.5 82.5t179 32q239 0 341 -141.5t102 -442.5h-643q14 -113 71.5 -173.5t153.5 -60.5q133 0 293 80l76 -178q-164 -74 -385 -74q-110 0 -198 39t-143 106.5t-83.5 154.5t-28.5 186zM332 545h420q-13 239 -222 239 q-32 0 -62.5 -10.5t-61.5 -35t-51 -74.5t-23 -119zM379 1085l196 240h232l-268 -240h-160z" />
<glyph unicode="&#xea;" horiz-adv-x="1067" d="M88 459q0 70 12.5 136.5t44.5 134.5t80.5 118.5t127.5 82.5t179 32q239 0 341 -141.5t102 -442.5h-643q14 -113 71.5 -173.5t153.5 -60.5q133 0 293 80l76 -178q-164 -74 -385 -74q-110 0 -198 39t-143 106.5t-83.5 154.5t-28.5 186zM270 1085l203 240h160l196 -240h-167 l-109 132l-115 -132h-168zM332 545h420q-13 239 -222 239q-32 0 -62.5 -10.5t-61.5 -35t-51 -74.5t-23 -119z" />
<glyph unicode="&#xeb;" horiz-adv-x="1067" d="M88 459q0 70 12.5 136.5t44.5 134.5t80.5 118.5t127.5 82.5t179 32q239 0 341 -141.5t102 -442.5h-643q14 -113 71.5 -173.5t153.5 -60.5q133 0 293 80l76 -178q-164 -74 -385 -74q-110 0 -198 39t-143 106.5t-83.5 154.5t-28.5 186zM285 1094v190h209v-190h-209z M332 545h420q-13 239 -222 239q-32 0 -62.5 -10.5t-61.5 -35t-51 -74.5t-23 -119zM610 1094v190h209v-190h-209z" />
<glyph unicode="&#xec;" horiz-adv-x="505" d="M10 1325h232l196 -240h-159zM137 0v936h232v-936h-232z" />
<glyph unicode="&#xed;" horiz-adv-x="505" d="M37 1085l196 240h232l-268 -240h-160zM137 0v936h232v-936h-232z" />
<glyph unicode="&#xee;" horiz-adv-x="505" d="M-10 1085l203 240h159l197 -240h-168l-109 132l-114 -132h-168zM137 0v936h232v-936h-232z" />
<glyph unicode="&#xef;" horiz-adv-x="505" d="M-14 1141v190h209v-190h-209zM137 0v936h232v-936h-232zM311 1141v190h209v-190h-209z" />
<glyph unicode="&#xf0;" d="M94 377q0 220 105.5 336t316.5 116q37 0 82 -13t96.5 -49.5t77.5 -88.5q0 146 -54.5 247.5t-156.5 153.5l-160 -106l-161 94l116 80q-31 6 -104 6h-51l-76 211q256 -3 442 -72l127 90l158 -94l-119 -82q281 -185 281 -626q0 -615 -475 -615q-118 0 -219.5 50.5 t-163.5 146t-62 215.5zM352 377q0 -109 52.5 -164t132.5 -55q52 0 88.5 13t67 47t46 100t15.5 165q-60 154 -219 154q-43 0 -75.5 -11t-51.5 -33t-31 -44t-17 -54.5t-6.5 -53.5t-1.5 -52v-12z" />
<glyph unicode="&#xf1;" horiz-adv-x="960" d="M111 936h213l36 -123q3 3 22.5 24.5t31 33.5t36.5 32.5t46.5 32t52 20.5t61.5 9q80 0 140 -19t97.5 -51t60.5 -80.5t31.5 -102.5t8.5 -122v-590h-231v600q0 42 -4 69t-17.5 57t-44.5 45t-80 15q-118 0 -204 -176v-610h-232v737q0 35 -4 68t-10.5 71t-9.5 60zM203 1120 q37 87 89 120.5t140 33.5q37 0 74 -23t69 -46t58 -23q36 0 61 26t25 54q0 2 -1 6t-1 6l143 -57q-25 -76 -86 -121t-137 -45q-47 0 -85 23t-67.5 46t-54.5 23q-78 0 -104 -80z" />
<glyph unicode="&#xf2;" horiz-adv-x="1099" d="M88 473q0 80 15.5 151t51 134.5t88 108.5t131.5 71.5t177 26.5q124 0 215 -38t143.5 -106.5t77.5 -155t25 -192.5q0 -104 -25.5 -192t-78.5 -159t-144 -111t-213 -40q-123 0 -214.5 40t-144.5 110.5t-78.5 158.5t-25.5 193zM297 1325h231l197 -240h-160zM326 473 q0 -323 225 -323q223 0 223 323q0 170 -52.5 241.5t-170.5 71.5q-114 0 -169.5 -73t-55.5 -240z" />
<glyph unicode="&#xf3;" horiz-adv-x="1099" d="M88 473q0 80 15.5 151t51 134.5t88 108.5t131.5 71.5t177 26.5q124 0 215 -38t143.5 -106.5t77.5 -155t25 -192.5q0 -104 -25.5 -192t-78.5 -159t-144 -111t-213 -40q-123 0 -214.5 40t-144.5 110.5t-78.5 158.5t-25.5 193zM326 473q0 -323 225 -323q223 0 223 323 q0 170 -52.5 241.5t-170.5 71.5q-114 0 -169.5 -73t-55.5 -240zM371 1085l196 240h232l-269 -240h-159z" />
<glyph unicode="&#xf4;" horiz-adv-x="1099" d="M88 473q0 80 15.5 151t51 134.5t88 108.5t131.5 71.5t177 26.5q124 0 215 -38t143.5 -106.5t77.5 -155t25 -192.5q0 -104 -25.5 -192t-78.5 -159t-144 -111t-213 -40q-123 0 -214.5 40t-144.5 110.5t-78.5 158.5t-25.5 193zM272 1085l203 240h160l196 -240h-167l-109 132 l-115 -132h-168zM326 473q0 -323 225 -323q223 0 223 323q0 170 -52.5 241.5t-170.5 71.5q-114 0 -169.5 -73t-55.5 -240z" />
<glyph unicode="&#xf5;" horiz-adv-x="1099" d="M88 473q0 80 15.5 151t51 134.5t88 108.5t131.5 71.5t177 26.5q124 0 215 -38t143.5 -106.5t77.5 -155t25 -192.5q0 -104 -25.5 -192t-78.5 -159t-144 -111t-213 -40q-123 0 -214.5 40t-144.5 110.5t-78.5 158.5t-25.5 193zM207 1120q37 87 89 120.5t140 33.5 q37 0 74 -23t69 -46t58 -23q39 0 67 29.5t37 62.5l123 -57q-25 -76 -86 -121t-137 -45q-47 0 -85 23t-67.5 46t-54.5 23q-78 0 -104 -80zM326 473q0 -323 225 -323q223 0 223 323q0 170 -52.5 241.5t-170.5 71.5q-114 0 -169.5 -73t-55.5 -240z" />
<glyph unicode="&#xf6;" horiz-adv-x="1099" d="M88 473q0 80 15.5 151t51 134.5t88 108.5t131.5 71.5t177 26.5q124 0 215 -38t143.5 -106.5t77.5 -155t25 -192.5q0 -104 -25.5 -192t-78.5 -159t-144 -111t-213 -40q-123 0 -214.5 40t-144.5 110.5t-78.5 158.5t-25.5 193zM289 1094v190h209v-190h-209zM326 473 q0 -323 225 -323q223 0 223 323q0 170 -52.5 241.5t-170.5 71.5q-114 0 -169.5 -73t-55.5 -240zM614 1094v190h209v-190h-209z" />
<glyph unicode="&#xf7;" d="M92 373v155h922v-155h-922zM430 16v226h246v-226h-246zM430 659v226h246v-226h-246z" />
<glyph unicode="&#xf8;" horiz-adv-x="1099" d="M33 70l112 125q-57 111 -57 278q0 80 15.5 151t51 134.5t88 108.5t131.5 71.5t177 26.5q144 0 250 -56l102 111l154 -150l-105 -114q60 -117 60 -283q0 -104 -25.5 -192t-78.5 -159t-144 -111t-213 -40q-154 0 -260 64l-105 -115zM326 473q0 -30 4 -80l338 369 q-46 24 -117 24q-114 0 -169.5 -73t-55.5 -240zM428 184q49 -34 123 -34q223 0 223 323q0 30 -4 84z" />
<glyph unicode="&#xf9;" horiz-adv-x="1069" d="M135 346v590h232v-600q0 -32 2 -54.5t10 -49.5t22.5 -43t41 -27.5t63.5 -11.5q65 0 111 47.5t85 128.5v610h232v-737q0 -35 4 -68t10.5 -71t9.5 -60h-213l-36 123q-4 -4 -26.5 -30.5t-39 -42t-44.5 -36.5t-61.5 -32t-70.5 -11q-76 0 -134 18.5t-95.5 51t-60.5 81 t-32.5 102.5t-9.5 122zM264 1325h232l196 -240h-160z" />
<glyph unicode="&#xfa;" horiz-adv-x="1069" d="M135 346v590h232v-600q0 -32 2 -54.5t10 -49.5t22.5 -43t41 -27.5t63.5 -11.5q65 0 111 47.5t85 128.5v610h232v-737q0 -35 4 -68t10.5 -71t9.5 -60h-213l-36 123q-4 -4 -26.5 -30.5t-39 -42t-44.5 -36.5t-61.5 -32t-70.5 -11q-76 0 -134 18.5t-95.5 51t-60.5 81 t-32.5 102.5t-9.5 122zM350 1085l197 240h231l-268 -240h-160z" />
<glyph unicode="&#xfb;" horiz-adv-x="1069" d="M135 346v590h232v-600q0 -32 2 -54.5t10 -49.5t22.5 -43t41 -27.5t63.5 -11.5q65 0 111 47.5t85 128.5v610h232v-737q0 -35 4 -68t10.5 -71t9.5 -60h-213l-36 123q-4 -4 -26.5 -30.5t-39 -42t-44.5 -36.5t-61.5 -32t-70.5 -11q-76 0 -134 18.5t-95.5 51t-60.5 81 t-32.5 102.5t-9.5 122zM248 1085l203 240h159l197 -240h-168l-109 132l-114 -132h-168z" />
<glyph unicode="&#xfc;" horiz-adv-x="1069" d="M135 346v590h232v-600q0 -32 2 -54.5t10 -49.5t22.5 -43t41 -27.5t63.5 -11.5q65 0 111 47.5t85 128.5v610h232v-737q0 -35 4 -68t10.5 -71t9.5 -60h-213l-36 123q-4 -4 -26.5 -30.5t-39 -42t-44.5 -36.5t-61.5 -32t-70.5 -11q-76 0 -134 18.5t-95.5 51t-60.5 81 t-32.5 102.5t-9.5 122zM266 1094v190h209v-190h-209zM592 1094v190h209v-190h-209z" />
<glyph unicode="&#xfd;" horiz-adv-x="1085" d="M74 936h248l239 -637l209 637h242l-391 -1086q-46 -128 -129 -215t-228 -137l-78 191q147 40 181 133l82 217zM328 1085l196 240h232l-269 -240h-159z" />
<glyph unicode="&#xfe;" horiz-adv-x="1087" d="M111 -412q9 74 16.5 326t7.5 373v1059h232v-533q107 150 245 150q102 0 178.5 -39.5t121 -108.5t66 -155t21.5 -187q0 -138 -45 -249t-142 -181t-232 -70q-78 0 -135 37.5t-85 83.5l-36 -506h-213zM362 283q61 -131 181 -131q219 0 219 317q0 92 -15 156t-43 97.5 t-60.5 47.5t-74.5 14q-36 0 -67 -14.5t-57 -43.5t-43.5 -55.5t-39.5 -66.5v-321z" />
<glyph unicode="&#xff;" horiz-adv-x="1085" d="M74 936h248l239 -637l209 637h242l-391 -1086q-46 -128 -129 -215t-228 -137l-78 191q147 40 181 133l82 217zM299 1094v190h209v-190h-209zM625 1094v190h209v-190h-209z" />
<glyph unicode="&#x152;" horiz-adv-x="2078" d="M121 657q0 120 20.5 222t67.5 190.5t118 150t178 97t243 35.5q124 0 215 -27h905v-199h-629q85 -136 100 -342h486v-198h-484q-10 -238 -100 -387h645v-199h-889q-109 -39 -252 -39q-140 0 -248 35t-178 95.5t-115 149.5t-64 190.5t-19 225.5zM387 657q0 -269 85 -383 t273 -114q184 0 258 119.5t74 377.5q0 266 -76 381t-256 115q-184 0 -271 -118.5t-87 -377.5z" />
<glyph unicode="&#x153;" horiz-adv-x="1742" d="M88 473q0 80 15.5 151t51 134.5t88 108.5t131.5 71.5t177 26.5q221 0 342 -134q115 132 311 132q128 0 215 -36.5t138 -113t72.5 -182.5t21.5 -258h-643q13 -112 70.5 -170t154.5 -58q127 0 287 80l75 -178q-164 -74 -378 -74q-203 0 -324 138q-120 -140 -342 -140 q-123 0 -214.5 40t-144.5 110.5t-78.5 158.5t-25.5 193zM326 473q0 -323 225 -323q223 0 223 323q0 170 -52.5 241.5t-170.5 71.5q-114 0 -169.5 -73t-55.5 -240zM1008 545h411q-7 128 -62 183.5t-151 55.5q-32 0 -62.5 -10.5t-61.5 -35t-51 -74.5t-23 -119z" />
<glyph unicode="&#x178;" horiz-adv-x="1267" d="M29 1325h293l321 -508l318 508h278l-477 -729v-596h-258v588zM389 1462v195h205v-195h-205zM709 1462v195h206v-195h-206z" />
<glyph unicode="&#x2c6;" horiz-adv-x="505" d="M-27 1085l203 240h160l196 -240h-167l-109 132l-115 -132h-168z" />
<glyph unicode="&#x2dc;" horiz-adv-x="505" d="M-76 1120q37 87 89 120.5t141 33.5q37 0 74 -23t68.5 -46t57.5 -23q39 0 67.5 30t37.5 62l123 -57q-24 -76 -86 -121t-138 -45q-37 0 -69 14.5t-51 31.5t-42 31.5t-44 14.5q-40 0 -67 -22.5t-38 -57.5z" />
<glyph unicode="&#x2000;" horiz-adv-x="855" />
<glyph unicode="&#x2001;" horiz-adv-x="1710" />
<glyph unicode="&#x2002;" horiz-adv-x="855" />
<glyph unicode="&#x2003;" horiz-adv-x="1710" />
<glyph unicode="&#x2004;" horiz-adv-x="570" />
<glyph unicode="&#x2005;" horiz-adv-x="427" />
<glyph unicode="&#x2006;" horiz-adv-x="285" />
<glyph unicode="&#x2007;" horiz-adv-x="285" />
<glyph unicode="&#x2008;" horiz-adv-x="213" />
<glyph unicode="&#x2009;" horiz-adv-x="342" />
<glyph unicode="&#x200a;" horiz-adv-x="95" />
<glyph unicode="&#x2010;" horiz-adv-x="716" d="M55 365v192h607v-192h-607z" />
<glyph unicode="&#x2011;" horiz-adv-x="716" d="M55 365v192h607v-192h-607z" />
<glyph unicode="&#x2012;" horiz-adv-x="716" d="M55 365v192h607v-192h-607z" />
<glyph unicode="&#x2013;" horiz-adv-x="1024" d="M-2 399v176h1028v-176h-1028z" />
<glyph unicode="&#x2014;" horiz-adv-x="2048" d="M-2 383v192h2052v-192h-2052z" />
<glyph unicode="&#x2018;" horiz-adv-x="552" d="M92 942l203 385h156l-175 -385h-184z" />
<glyph unicode="&#x2019;" horiz-adv-x="552" d="M92 942l174 385h185l-201 -385h-158z" />
<glyph unicode="&#x201a;" horiz-adv-x="552" d="M92 -180l174 385h185l-201 -385h-158z" />
<glyph unicode="&#x201c;" horiz-adv-x="839" d="M82 942l203 385h155l-174 -385h-184zM399 942l201 385h158l-174 -385h-185z" />
<glyph unicode="&#x201d;" horiz-adv-x="839" d="M82 942l174 385h184l-200 -385h-158zM399 942l174 385h185l-203 -385h-156z" />
<glyph unicode="&#x201e;" horiz-adv-x="839" d="M82 -180l174 385h184l-200 -385h-158zM399 -180l174 385h185l-203 -385h-156z" />
<glyph unicode="&#x2022;" d="M260 664q0 123 85 207.5t208 84.5t208 -84.5t85 -207.5t-85 -209t-208 -86q-124 0 -208.5 85t-84.5 210z" />
<glyph unicode="&#x2026;" horiz-adv-x="1658" d="M154 0v225h245v-225h-245zM707 0v225h245v-225h-245zM1260 0v225h245v-225h-245z" />
<glyph unicode="&#x202f;" horiz-adv-x="342" />
<glyph unicode="&#x2039;" horiz-adv-x="552" d="M86 553l190 373h213l-198 -369l196 -369h-211z" />
<glyph unicode="&#x203a;" horiz-adv-x="552" d="M86 926h213l190 -373l-190 -365h-211l197 369z" />
<glyph unicode="&#x205f;" horiz-adv-x="427" />
<glyph unicode="&#x2122;" horiz-adv-x="1894" d="M139 1214v111h592v-111h-219v-618h-154v618h-219zM825 596v729h254l203 -539l205 539h244v-729h-152v578l-223 -578h-160l-223 578v-578h-148z" />
<glyph unicode="&#x25fc;" horiz-adv-x="931" d="M0 0v932h932v-932h-932z" />
<glyph unicode="&#xfb01;" d="M23 758v178h141v27q0 82 28.5 148.5t69.5 107.5t99.5 72.5t104.5 46t99 24.5l80 -191q-128 -21 -189 -61.5t-61 -128.5v-45h172v-178h-172v-758h-231v758h-141zM731 1124v201h244v-201h-244zM737 0v936h232v-936h-232z" />
<glyph unicode="&#xfb02;" d="M23 758v178h141v27q0 82 28.5 148.5t69.5 107.5t99.5 72.5t104.5 46t99 24.5l80 -191q-128 -21 -189 -61.5t-61 -128.5v-45h172v-178h-172v-758h-231v758h-141zM743 0v1346h232v-1346h-232z" />
</font>
</defs>
</svg>
